Меня зовут Кхан / My Name Is Khan (Каран Джохар) [2010 г., Драма, Мелодрама] DVDRip

Ответить на тему
 

Mr_ALo ®

Стаж: 7 лет 11 месяцев

Сообщений: 367

Симпатии: 20

Меня зовут Кхан / My Name Is Khan Год выпуска: 2010
Страна: Индия
Жанр: Драма, Мелодрама
Продолжительность: 02:34:54
Перевод: Дублированный [Лицензия]
Режиссер: Каран Джохар
В ролях: Шахрукх Кхан, Шэйн Харпер, Каджол, Хармони Блоссом, Стефани Хакабай, Кристофер Б. Дункан, Кэтлин М. Дарси, Мишель Марш, Дженнифер Экхолс, Адриан Кали Тернер
Описание: Ризван Кхан, мусульманин из Индии, переезжает в Сан-Франциско и живет со своим братом и невесткой. Ризван, страдающий от Синдрома Аспергера, влюбляется в Мандиру. Несмотря на протесты его семьи, они женятся и начинают вместе небольшой бизнес. Они живут счастливо до 11 сентября 2001 года, когда отношение к мусульманам резко меняется. Когда происходит трагедия, Мандира оказывается раздавленной и их отношения дают трещину. Ризван растерян и очень расстроен тем, что любовь всей его жизни покинула его. Чтобы вернуть ее, он предпринимает трогательное и вдохновляющее путешествие через всю Америку.
    
     
слоган «Обычный человек, необычайное путешествие... во имя любви»
Качество: DVDRip
Формат: AVI
Видео: XviD 720x304 25.000 fps, 878 Kbps
Аудио: AC3 48.0 KHz 6 channels, 384 Kbps

MediaInfo

General
Complete name : C:\Downloads\Меня зовут Кхан 2010 DVDRip.avi
Format : AVI
Format/Info : Audio Video Interleave
File size : 1.38 GiB
Duration : 2h 34mn
Overall bit rate : 1 272 Kbps
Writing application : VirtualDubMod 1.5.10.3 | www.virtualdub-fr.org || (build 2550/release)
Writing library : VirtualDubMod build 2550/release
Video
ID : 0
Format : MPEG-4 Visual
Format profile : Advanced [email protected]
Format settings, BVOP : 1
Format settings, QPel : No
Format settings, GMC : No warppoints
Format settings, Matrix : Default (MPEG)
Codec ID : XVID
Codec ID/Hint : XviD
Duration : 2h 34mn
Bit rate : 878 Kbps
Width : 720 pixels
Height : 304 pixels
Display aspect ratio : 2.35:1
Frame rate : 25.000 fps
Color space : YUV
Chroma subsampling : 4:2:0
Bit depth : 8 bits
Scan type : Progressive
Compression mode : Lossy
Bits/(Pixel*Frame) : 0.160
Stream size : 973 MiB (69%)
Writing library : XviD 58
Audio
ID : 1
Format : AC-3
Format/Info : Audio Coding 3
Mode extension : CM (complete main)
Codec ID : 2000
Duration : 2h 34mn
Bit rate mode : Constant
Bit rate : 384 Kbps
Channel(s) : 6 channels
Channel positions : Front: L C R, Side: L R, LFE
Sampling rate : 48.0 KHz
Bit depth : 16 bits
Compression mode : Lossy
Stream size : 425 MiB (30%)
Alignment : Split accross interleaves
Interleave, duration : 40 ms (1.00 video frame)
Interleave, preload duration : 500 ms

Скриншоты





Последний раз редактировалось: Mr_ALo (2012-01-27 12:05), всего редактировалось 2 раз(а)

Создавать темы 02-Мар-2011 23:10

[Профиль]  [ЛС] 

vintage

Стаж: 5 лет 10 месяцев

Сообщений: 13

Кто может встаньте на раздачу пожалуйста!

Создавать темы 07-Янв-2012 14:59

[Профиль]  [ЛС] 

vintage

Стаж: 5 лет 10 месяцев

Сообщений: 13

Mr_ALo, Mr_ALo, Можете на раздачу встать?

Создавать темы 07-Янв-2012 17:29

[Профиль]  [ЛС] 

Sinema_uz

Стаж: 6 лет 10 месяцев

Сообщений: 303

Симпатии: 4

встанте на раздачу

Создавать темы 07-Янв-2012 17:32

[Профиль]  [ЛС] 

vintage

Стаж: 5 лет 10 месяцев

Сообщений: 13

На данным момент скачал 30% стои на раздаче и хотелось бы окачать,в данным момент скорость закачки 15кбайт! Если кто может встаньте на раздачу!

Создавать темы 07-Янв-2012 20:09

[Профиль]  [ЛС] 

alisher17

Стаж: 7 лет 8 месяцев

Сообщений: 8

Вернитесь на раздачу пожалуйста. Уже 2 дня стою на 11%

Создавать темы 12-Июл-2012 10:16

[Профиль]  [ЛС] 

sanjar_0009

Стаж: 5 лет 4 месяца

Сообщений: 50

Симпатии: 2

спс

Создавать темы 16-Окт-2012 16:23

[Профиль]  [ЛС] 

rustikuz8

Стаж: 4 года 6 месяцев

Сообщений: 10

перевод во многих местах не полный. Почему так?

Создавать темы 23-Май-2013 14:20

[Профиль]  [ЛС] 

Solitary

Стаж: 4 года 4 месяца

Сообщений: 10

Позаалюста встаньте на раздачу)

Создавать темы 02-Июл-2013 23:22

[Профиль]  [ЛС] 

ReDemon

Стаж: 5 лет 6 месяцев

Сообщений: 11

Mr_ALo, rustikuz8, потому что фильм скачан с киномана(аудио дорожка немного битая в общем около 10 минут не хватает) а потом перезалит на торрент

Создавать темы 02-Июл-2013 23:32

[Профиль]  [ЛС] 

mrpanda

Стаж: 4 года 1 месяц

Сообщений: 3

Симпатии: 3

дайте скорости

Создавать темы 24-Окт-2013 20:15

[Профиль]  [ЛС] 
Показать сообщения:    
Ответить на тему

Текущее время: 18-Ноя 17:15

Часовой пояс: UTC + 5



Вы не можете начинать темы
Вы не можете отвечать на сообщения
Вы не можете редактировать свои сообщения
Вы не можете удалять свои сообщения
Вы не можете голосовать в опросах
Вы не можете прикреплять файлы к сообщениям
Вы не можете скачивать файлы