Мир Варкрафта Сказания Прошлого III / World of Warcraft: Tales of The Past III (Мартин Фальш) [2008 г., Приключения, Фэнтези, Анимация, DVDRip]

Страницы :  1, 2  След.

Ответить на тему
 

Mr_ALo ®

Стаж: 7 лет 10 месяцев

Сообщений: 367

Симпатии: 20

Мир Варкрафта Сказания Прошлого III / World of Warcraft: Tales of The Past III Год выпуска: 2008
Жанр: Приключения, Фэнтези, Анимация
Продолжительность: 01:28:41
Перевод: Оригинал + русские субтитры
Режиссер: Мартин Фальш
В ролях: Герои игры World of Warcraft
О фильме:
Затраченные 2 года на создание анимационного фильма WoW оправданы! После полутора лет стараний датчане представили свой фильм о World of Warcraft, который игровая общественность тут же нарекла лучшим из лучших. В кратком ревью произведения автор некоего блога с трудом сдерживает эмоции воздавая хвалу работе Мартина Фальша и повторяя отзывы других зрителей:
"Бросьте всё, что вы делаете, и садитесь смотреть! У меня нет слов, чтобы описать это. Я сомневаюсь, что официальное видео по WoW будет лучше. Если бы его крутили в кинотеатрах, я бы заплатил за билет!"
Данный анимационный фильм заслужил во всех странах без исключения в первые дни просмотра самые высокие оценки. Сюжетная линия захватывает Вас и не отпускает до самого конца фильма.
Качество: DVDRip
Формат: AVI
Видео: 3233 kb/s 800x600 (1.33:1), 30 fps, VP6 VFW Codec (On2 Technologies, Inc.) ~24
Аудио: 44.100 kHz, Microsoft PCM, 2 ch, ~1411.20 kbps avg

MediaInfo

General
Complete name : E:\Multfilms\Worldofwarcraft.avi
Format : AVI
Format/Info : Audio Video Interleave
Format profile : OpenDML
File size : 2.39 GiB
Duration : 1h 28mn
Overall bit rate : 3 858 Kbps
Writing application : VirtualDubMod 1.5.4.1 (build 2066/release)
Writing library : VirtualDubMod build 2066/release
Video
ID : 0
Format : VP6.1
Codec ID : VP61
Codec ID/Hint : On2
Duration : 1h 28mn
Bit rate : 2 433 Kbps
Width : 800 pixels
Height : 600 pixels
Display aspect ratio : 4:3
Frame rate : 30.000 fps
Bits/(Pixel*Frame) : 0.169
Stream size : 1.51 GiB (63%)
Audio
ID : 1
Format : PCM
Format settings, Endianness : Little
Format settings, Sign : Signed
Codec ID : 1
Codec ID/Hint : Microsoft
Duration : 1h 28mn
Bit rate mode : Constant
Bit rate : 1 411.2 Kbps
Channel(s) : 2 channels
Sampling rate : 44.1 KHz
Bit depth : 16 bits
Stream size : 895 MiB (37%)
Interleave, duration : 33 ms (1.00 video frame)
Interleave, preload duration : 500 ms

Скриншоты



Последний раз редактировалось: Mr_ALo (2011-10-01 18:46), всего редактировалось 2 раз(а)

Создавать темы 08-Фев-2010 07:44

[Профиль]  [ЛС] 

Эльяр

Стаж: 7 лет 10 месяцев

Сообщений: 48

Симпатии: 4

Мдаа...
Честно говоря, ожидал что-то типа роликов из первой части 3 Варкрафта.
Люди, смотрите скрины!

Создавать темы 16-Фев-2010 23:14

[Профиль]  [ЛС] 

kvint

Стаж: 7 лет 8 месяцев

Сообщений: 84

Симпатии: 5

"Бросьте всё, что вы делаете, и садитесь смотреть! У меня нет слов, чтобы описать это. Я сомневаюсь, что официальное видео по WoW будет лучше. Если бы его крутили в кинотеатрах, я бы заплатил за билет!"
это просто любители смонтировали игровой процес в подобие сюжета и все.

Создавать темы 17-Фев-2010 07:54

[Профиль]  [ЛС] 

YouRush

Стаж: 7 лет 11 месяцев

Сообщений: 15

Симпатии: 5

мне одной минуты просмотра хватило что удалить это г.... даже не знаю на что я надеялся, официальный только в разработке

Создавать темы 18-Фев-2010 05:27

[Профиль]  [ЛС] 

Mr_ALo ®

Стаж: 7 лет 10 месяцев

Сообщений: 367

Симпатии: 20

чего ожидали до филма далеко но посмотрет можно
я все взял с описания и скопировал скачал и смотрел не сожалел как вы

Создавать темы 20-Фев-2010 00:37

[Профиль]  [ЛС] 

Эльяр

Стаж: 7 лет 10 месяцев

Сообщений: 48

Симпатии: 4

Mr_ALo
Да ясное дело, ты не хотел обмануть. К тебе претензий нет. :)
Просто все ожидали другого.

Создавать темы 20-Фев-2010 22:54

[Профиль]  [ЛС] 

Avatarnavi

Стаж: 7 лет 5 месяцев

Сообщений: 45

Да я тоже ждал многого от мульта, слышал где-то что японцы сделали шикарный мульт и купился не посмотрел что и как а сразу качать и вот те на, как сказали ранее г......

Создавать темы 04-Июн-2010 18:29

[Профиль]  [ЛС] 

blackunit

Стаж: 7 лет 4 месяца

Сообщений: 99

Симпатии: 1

Поправь Скрины!!! Чтоб мы тоже смогли узнать, че мы качаем, если поверить комментам не хочется качать. Или ты специально?

Создавать темы 28-Ноя-2010 20:59

[Профиль]  [ЛС] 

Dilex

Стаж: 6 лет 11 месяцев

Сообщений: 2

Это мульт называется вот так вот? Мир Варкрафта: Сказания Прошлого III

Создавать темы 11-Дек-2010 22:59

[Профиль]  [ЛС] 

So Long

Стаж: 6 лет 8 месяцев

Сообщений: 26

Фильм хороший смотрел))

Создавать темы 22-Фев-2011 12:49

[Профиль]  [ЛС] 

Сообщения из этой темы были выделены в отдельный топик Флуд/Оффтоп из темы: http://tas-ix.net/viewtopic.php?t=2105

Pendalf

Создавать темы 22-Янв-2012 15:10

 

highlord!

Стаж: 6 лет 8 месяцев

Сообщений: 62

Симпатии: 1

Раздайте кто там еще остались.

Создавать темы 27-Янв-2012 19:08

[Профиль]  [ЛС] 

highlord!

Стаж: 6 лет 8 месяцев

Сообщений: 62

Симпатии: 1

Чет сидов воопще не видно.

Создавать темы 28-Янв-2012 14:30

[Профиль]  [ЛС] 

Aqua-Phoenix

Стаж: 5 лет 5 месяцев

Сообщений: 6

Дайте Скорость! Надаело качать на 3кб/c

Создавать темы 28-Авг-2012 23:19

[Профиль]  [ЛС] 

FNX-FeNiX

Стаж: 5 лет 2 месяца

Сообщений: 65

Дайте Хот не много скорости 30% с лишнем остался

Создавать темы 29-Авг-2012 22:44

[Профиль]  [ЛС] 
Показать сообщения:    
Ответить на тему

Текущее время: 23-Окт 03:54

Часовой пояс: UTC + 5



Вы не можете начинать темы
Вы не можете отвечать на сообщения
Вы не можете редактировать свои сообщения
Вы не можете удалять свои сообщения
Вы не можете голосовать в опросах
Вы не можете прикреплять файлы к сообщениям
Вы не можете скачивать файлы