Мулан / Hua Mulan (Джингл Ма, Вэй Донг) [2009 г., Драма, Мелодрама, Приключения, Военный, BDRip]

Ответить на тему
 

Mr_ALo ®

Стаж: 7 лет 11 месяцев

Сообщений: 367

Симпатии: 20

Мулан / Hua MulanГод выпуска: 2009
Страна: США, Китай
Жанр: Драма, Мелодрама, Приключения, Военный
Продолжительность: 01:54:11
Перевод: Профессиональный (многоголосый, закадровый) Лицензия Парадиз-ВС
Режиссер: Джингл Ма, Вэй Донг
В ролях: Чжао Вэй, Джейси Чан, Ху Цзюнь, Чэнь Кунь, Виталий Грачев
Описание: Это легенда о женщине, которая готова отдать свою единственную любовь, жизнь ради своей родины. Несколько столетий назад император издал указ, по которому каждая семья должна предоставить одного солдата в действующую армию.
У семьи Хуа нет наследника мужского пола и по закону в армию должен идти стареющий отец. В место того, чтобы посылать отца на верную смерть его дочь Мулан, маскируется под мужчину и занимает его место.
IMDB: 6.30 (1 091)
     
Качество: BDRip
Формат: AVI
Видео: 720x304 (2.37:1), 24 fps, XviD build 57 ~1832 kbps avg, 0.35 bit/pixel
Аудио: #1: 48 kHz, AC3 Dolby Digital, 3/2 (L,C,R,l,r) + LFE ch, ~448.00 kbps avg |MVO|
Аудио: #2: 48 kHz, AC3 Dolby Digital, 3/2 (L,C,R,l,r) + LFE ch, ~448.00 kbps avg |CHI|

MediaInfo

General
Complete name : E:\Films\Мулан 2009 BDRip.avi
Format : AVI
Format/Info : Audio Video Interleave
Format profile : OpenDML
File size : 2.18 GiB
Duration : 1h 54mn
Overall bit rate : 2 735 Kbps
Movie name : Mulan.2009.DUAL.BDRip.XviD.AC3.-HQCLUB
Director : JoKeR (Blu-ray)
Writing application : VirtualDubModRus 1.5.10.2 (build 2542/release)
Copyright : HQCLUB (http://hqclub.net/)
Comment : 13.02.2011
Video
ID : 0
Format : MPEG-4 Visual
Format profile : Advanced [email protected]
Format settings, BVOP : 1
Format settings, QPel : No
Format settings, GMC : No warppoints
Format settings, Matrix : Custom
Codec ID : XVID
Codec ID/Hint : XviD
Duration : 1h 54mn
Bit rate : 1 822 Kbps
Width : 720 pixels
Height : 304 pixels
Display aspect ratio : 2.35:1
Frame rate : 24.000 fps
Color space : YUV
Chroma subsampling : 4:2:0
Bit depth : 8 bits
Scan type : Progressive
Compression mode : Lossy
Bits/(Pixel*Frame) : 0.347
Stream size : 1.45 GiB (67%)
Writing library : XviD 57
Audio #1
ID : 1
Format : AC-3
Format/Info : Audio Coding 3
Mode extension : CM (complete main)
Codec ID : 2000
Duration : 1h 54mn
Bit rate mode : Constant
Bit rate : 448 Kbps
Channel(s) : 6 channels
Channel positions : Front: L C R, Side: L R, LFE
Sampling rate : 48.0 KHz
Bit depth : 16 bits
Compression mode : Lossy
Stream size : 365 MiB (16%)
Alignment : Split accross interleaves
Interleave, duration : 42 ms (1.00 video frame)
Interleave, preload duration : 500 ms
Audio #2
ID : 2
Format : AC-3
Format/Info : Audio Coding 3
Mode extension : CM (complete main)
Codec ID : 2000
Duration : 1h 54mn
Bit rate mode : Constant
Bit rate : 448 Kbps
Channel(s) : 6 channels
Channel positions : Front: L C R, Side: L R, LFE
Sampling rate : 48.0 KHz
Bit depth : 16 bits
Compression mode : Lossy
Stream size : 366 MiB (16%)
Alignment : Split accross interleaves
Interleave, duration : 42 ms (1.00 video frame)
Interleave, preload duration : 500 ms

Скриншоты





Последний раз редактировалось: Mr_ALo (2012-01-28 10:11), всего редактировалось 2 раз(а)

Создавать темы 13-Мар-2011 01:36

[Профиль]  [ЛС] 

johnwelmer

Стаж: 6 лет 9 месяцев

Сообщений: 20

Симпатии: 1

у фильма такой высокий рейтинг в кинопоиске а скачали всеголиш двое... bn

Создавать темы 01-Апр-2011 16:15

[Профиль]  [ЛС] 

lord-david

Стаж: 7 лет 4 месяца

Сообщений: 175

Симпатии: 2

Mr_ALo спс, только заметил! В детстве сморел его мульт, а тут фильма да еще и лицуха!!!
Скорость!!!

Создавать темы 01-Апр-2011 16:33

[Профиль]  [ЛС] 

Топик был перенесен из форума Зарубежное кино в форум Азиатские фильмы


Mr_ALo

Создавать темы 28-Янв-2012 10:12

 

Dimon2627

Стаж: 5 лет 9 месяцев

Сообщений: 25

Спасибо, хороший фильм!

Создавать темы 31-Мар-2012 22:09

[Профиль]  [ЛС] 

Seven_Sky

Стаж: 6 лет 10 месяцев

Сообщений: 431

Симпатии: 43

где скорость?

Создавать темы 06-Июл-2012 13:38

[Профиль]  [ЛС] 

Евгения1982

Стаж: 5 лет 6 месяцев

Сообщений: 7

привет! раздавать будем?)))

Создавать темы 06-Июл-2012 20:49

[Профиль]  [ЛС] 

kamolhon

Стаж: 5 лет 2 месяца

Сообщений: 5

ПРЕВОСХОДНЫЙ ФИЛЬМ ! НУ МОЖНО ЖЕ ОКАЗЫВАЕТСЯ СНЯТЬ ТАКОЙ ФИЛЬМ. СОВЕТУЮ ПОСМОТРЕТЬ-МОЖНО НЕСКОЛЬКО РАЗ :).ВОТ ТОЛЬКО ГАЗУ ДАЙТЕ - 4 ДНЯ КАЧАЛ.

Создавать темы 15-Сен-2012 02:16

[Профиль]  [ЛС] 

MNjon

Стаж: 5 лет 2 месяца

Сообщений: 101

Симпатии: 5

Я видел. Скачать, нет??

Создавать темы 23-Сен-2012 23:59

[Профиль]  [ЛС] 

Vies

Стаж: 4 года 8 месяцев

Сообщений: 3

Симпатии: 1

Тут Джейси Чан снимается?)) Сын Джеки Чана!

Создавать темы 07-Май-2013 11:01

[Профиль]  [ЛС] 
Показать сообщения:    
Ответить на тему

Текущее время: 18-Ноя 17:20

Часовой пояс: UTC + 5



Вы не можете начинать темы
Вы не можете отвечать на сообщения
Вы не можете редактировать свои сообщения
Вы не можете удалять свои сообщения
Вы не можете голосовать в опросах
Вы не можете прикреплять файлы к сообщениям
Вы не можете скачивать файлы