Мегамозг / Megamind (Том МакГрат / Tom McGrath) [2010 г., мультфильм, фантастика, боевик, комедия, семейный,HDRip-AVC]

Страницы :  1, 2  След.

Ответить на тему
 

Mustis ®

Стаж: 7 лет 2 месяца

Сообщений: 43

Мегамозг / Megamind
Год выпуска: 2010
Страна: США
Жанр: мультфильм, фантастика, боевик, комедия, семейный
Продолжительность: 01:35:34
Перевод: Профессиональный (многоголосый, закадровый) BBC Saint-Petersburg
Режиссер: Том МакГрат / Tom McGrath
В ролях: Уилл Феррелл, Брэд Питт, Тина Фей, Джона Хилл, Дэвид Кросс, Джастин Теру, Бен Стиллер, Джессика Шульте, Том МакГрат, Эмили Нордвинд
Описание: Мегамозг — самый гениальный и самый неудачливый злодей в мире. Вот уже много лет он пытается покорить Метро-Сити самыми разнообразными способами. Но каждая такая попытка кончается провалом по вине супергероя по имени Метро-Мэн. Но злодей убивает супергероя, и внезапно Мегамозг лишается цели в жизни. Суперзлодей без супергероя.
Единственный выход — создать нового супергероя, которого он называет Титаном. Но Титан решает, что быть злодеем куда интереснее. Вот только ему не хочется править миром, он желает его уничтожить. Мегамозгу предстоит непростой выбор. Сможет ли злой гений стать героем — спасителем человечества.
Качество: HDRip-AVC [Исх. BDRip 1080p]
Формат: MKV
Видео: H.264, 960x408, 2.35:1, 23,976 fps, 1794 kb/s
Аудио: AC3, 48 KHz, 384 kb/s, 3/2 (L,C,R,l,r) + LFE ch

MediaInfo

General
Complete name : L:\Downloads\Torrents\Crysis\Megamozg.2010.MVO.x264.HDRip.Vaippp.mkv
Format : Matroska
File size : 1.46 GiB
Duration : 1h 35mn
Overall bit rate : 2 179 Kbps
Movie name : Megamind (2010) Release by Vaippp for OpenSharing.Team
Encoded date : UTC 2011-02-16 22:34:40
Writing application : mkvmerge v4.4.0 ('Die Wiederkehr') сборка от Oct 31 2010 21:52:48
Writing library : libebml v1.0.0 + libmatroska v1.0.0
Video
ID : 1
Format : AVC
Format/Info : Advanced Video Codec
Format profile : [email protected]
Format settings, CABAC : Yes
Format settings, ReFrames : 9 frames
Muxing mode : Container [email protected]
Codec ID : V_MPEG4/ISO/AVC
Duration : 1h 35mn
Bit rate : 1 794 Kbps
Width : 960 pixels
Height : 408 pixels
Display aspect ratio : 2.35:1
Frame rate : 23.976 fps
Color space : YUV
Chroma subsampling : 4:2:0
Bit depth : 8 bits
Scan type : Progressive
Bits/(Pixel*Frame) : 0.191
Stream size : 1.17 GiB (80%)
Title : HDRip by Vaippp for OpenSharing.Team
Writing library : x264 core 112 r1867 22bfd31
Encoding settings : cabac=1 / ref=9 / deblock=1:-1:-1 / analyse=0x3:0x113 / me=umh / subme=9 / psy=1 / psy_rd=0.80:0.00 / mixed_ref=1 / me_range=32 / chroma_me=1 / trellis=1 / 8x8dct=1 / cqm=0 / deadzone=21,11 / fast_pskip=0 / chroma_qp_offset=-2 / threads=4 / sliced_threads=0 / nr=0 / decimate=1 / interlaced=0 / constrained_intra=0 / bframes=8 / b_pyramid=2 / b_adapt=2 / b_bias=0 / direct=3 / weightb=1 / open_gop=0 / weightp=2 / keyint=250 / keyint_min=23 / scenecut=40 / intra_refresh=0 / rc_lookahead=60 / rc=2pass / mbtree=1 / bitrate=1794 / ratetol=1.0 / qcomp=0.60 / qpmin=10 / qpmax=51 / qpstep=4 / cplxblur=20.0 / qblur=0.5 / ip_ratio=1.40 / aq=1:0.60 / zones=123716,137494,q=37
Audio
ID : 2
Format : AC-3
Format/Info : Audio Coding 3
Mode extension : CM (complete main)
Codec ID : A_AC3
Duration : 1h 35mn
Bit rate mode : Constant
Bit rate : 384 Kbps
Channel(s) : 6 channels
Channel positions : Front: L C R, Side: L R, LFE
Sampling rate : 48.0 KHz
Stream size : 263 MiB (18%)
Title : MVO
Language : Russian

Скриншоты







Последний раз редактировалось: Mustis (2011-03-15 09:08), всего редактировалось 4 раз(а)

Создавать темы 15-Мар-2011 07:46

[Профиль]  [ЛС] 

Mustis ®

Стаж: 7 лет 2 месяца

Сообщений: 43

только раздавать не всегда получиться днём bf

Создавать темы 15-Мар-2011 07:47

[Профиль]  [ЛС] 

CoolDX

Стаж: 6 лет 11 месяцев

Сообщений: 196

Симпатии: 59

Mustis, жаль что не лицензия...
Просьба в следующий раз правильно указывать параметры Видео (стояло MPEG2)

Создавать темы 15-Мар-2011 09:09

[Профиль]  [ЛС] 

x6

Стаж: 6 лет 9 месяцев

Сообщений: 171

Симпатии: 3

сиды и пиры есть а качает 10кб

_________________
Подпись отключена за нарушение правил форума

Создавать темы 15-Мар-2011 13:23

[Профиль]  [ЛС] 

chumbarakasa

Стаж: 7 лет 1 месяц

Сообщений: 74

Симпатии: 1

Так, когда звук!БЛЯЕАТЬ! ag

Создавать темы 15-Мар-2011 15:34

[Профиль]  [ЛС] 

x6

Стаж: 6 лет 9 месяцев

Сообщений: 171

Симпатии: 3

СКОРОСТИ!

_________________
Подпись отключена за нарушение правил форума

Создавать темы 16-Мар-2011 15:35

[Профиль]  [ЛС] 

Mustis ®

Стаж: 7 лет 2 месяца

Сообщений: 43

ночью скорость отдам всю которая будет!!!! ay

Создавать темы 16-Мар-2011 16:51

[Профиль]  [ЛС] 

x6

Стаж: 6 лет 9 месяцев

Сообщений: 171

Симпатии: 3

качество видео супер, но перевод не тот!! дубляж бы zd
когда выйдет дубляж с лицензии?

_________________
Подпись отключена за нарушение правил форума


Последний раз редактировалось: x6 (2011-03-17 21:50), всего редактировалось 2 раз(а)

Создавать темы 17-Мар-2011 21:50

[Профиль]  [ЛС] 

Mister-X

Стаж: 7 лет

Сообщений: 34

спс)))друг мулт просто улёт смеялис от души ag tebe respect mustis

Создавать темы 03-Апр-2011 19:00

[Профиль]  [ЛС] 

Mustis ®

Стаж: 7 лет 2 месяца

Сообщений: 43

Да на здоровье!!!! ag

Создавать темы 06-Апр-2011 18:52

[Профиль]  [ЛС] 

x6

Стаж: 6 лет 9 месяцев

Сообщений: 171

Симпатии: 3

залейте дубляж плиз

_________________
Подпись отключена за нарушение правил форума

Создавать темы 14-Апр-2011 16:13

[Профиль]  [ЛС] 

HAPPY_DON9

Стаж: 6 лет 7 месяцев

Сообщений: 1

чуваки привет az !дайте скорость ay !прошу ak

Создавать темы 15-Апр-2011 15:52

[Профиль]  [ЛС] 

WeeZy

Стаж: 8 лет

Сообщений: 67

дубляж выложите пожалуста!!!

Создавать темы 15-Апр-2011 15:59

[Профиль]  [ЛС] 

Mustis ®

Стаж: 7 лет 2 месяца

Сообщений: 43

все просят дубляж,ладно как скачаю выложу.

Создавать темы 15-Апр-2011 17:13

[Профиль]  [ЛС] 

Топик был перенесен из форума Мультфильмы в форум HD-AVC

Pendalf

Создавать темы 08-Янв-2012 02:23

 
Показать сообщения:    
Ответить на тему

Текущее время: 24-Ноя 17:47

Часовой пояс: UTC + 5



Вы не можете начинать темы
Вы не можете отвечать на сообщения
Вы не можете редактировать свои сообщения
Вы не можете удалять свои сообщения
Вы не можете голосовать в опросах
Вы не можете прикреплять файлы к сообщениям
Вы не можете скачивать файлы