Мегамозг: Кнопка гибели / Megamind: The Button of Doom (Саймон Дж. Смит) [2011 г., Мультфильм, Короткометражка, Фантастика, Комедия, Cемейный, HDRip]

Ответить на тему
 

Mr_ALo ®

Стаж: 7 лет 10 месяцев

Сообщений: 367

Симпатии: 20

Мегамозг: Кнопка гибели / Megamind: The Button of Doom
Год выпуска: 2011
Страна: США
Жанр: Мультфильм, Короткометражка, Фантастика, Комедия, Cемейный
Продолжительность: 00:15:52
Перевод: Дублированный [Лицензия]
Режиссер: Саймон Дж. Смит
В ролях: Уилл Феррелл, Мишель Бельфорте, Хаузер Джордан Александр, Кевин Н. Бейли, Данте Джеймс Хаузер, Деклан Свифт, Финтан Томас Свифт, Дэвид Кросс
Описание: В первый день работы в качестве защитников Метросити, Мегамозг и Прислужник продают гаджеты от своих злых дел в логове. Но когда казалось бы, безобидная кнопка вызывает гигантского робота MEGA-MEGAmind, дуэту придется прибегнуть к своим старым уловкам, чтобы навести порядок в городе.- -Качество: HDRip
Видео: XviD 720х400 23.976 fps, 1 823 Kbps
Аудио: AC3 48.0 KHz 2 channels, 384 Kbps

MediaInfo

General
Complete name : C:\Downloads\Мегамозг Кнопка гибели 2011 HDRip.avi
Format : AVI
Format/Info : Audio Video Interleave
File size : 252 MiB
Duration : 15mn 52s
Overall bit rate : 2 216 Kbps
Writing application : VirtualDubMod 1.5.10.2 (build 2540/release)
Writing library : VirtualDubMod build 2540/release
Video
ID : 0
Format : MPEG-4 Visual
Format profile : Advanced [email protected]
Format settings, BVOP : 2
Format settings, QPel : No
Format settings, GMC : No warppoints
Format settings, Matrix : Default (MPEG)
Codec ID : XVID
Codec ID/Hint : XviD
Duration : 15mn 52s
Bit rate : 1 823 Kbps
Width : 720 pixels
Height : 400 pixels
Display aspect ratio : 16:9
Frame rate : 23.976 fps
Color space : YUV
Chroma subsampling : 4:2:0
Bit depth : 8 bits
Scan type : Progressive
Compression mode : Lossy
Bits/(Pixel*Frame) : 0.264
Stream size : 207 MiB (82%)
Writing library : XviD 1.2.1 (UTC 2008-12-04)
Audio
ID : 1
Format : AC-3
Format/Info : Audio Coding 3
Mode extension : CM (complete main)
Codec ID : 2000
Duration : 15mn 52s
Bit rate mode : Constant
Bit rate : 384 Kbps
Channel(s) : 2 channels
Channel positions : Front: L R
Sampling rate : 48.0 KHz
Bit depth : 16 bits
Compression mode : Lossy
Delay relative to video : 16ms
Stream size : 43.6 MiB (17%)
Alignment : Split accross interleaves
Interleave, duration : 42 ms (1.00 video frame)
Interleave, preload duration : 500 ms

Скриншоты






Последний раз редактировалось: Mr_ALo (2012-01-23 21:21), всего редактировалось 1 раз

Создавать темы 17-Мар-2011 00:31

[Профиль]  [ЛС] 

BeasT

Стаж: 7 лет 1 месяц

Сообщений: 24

o_O тока что выложили на player уз трейлер к этому мулт. Так быстро лицензия вышла )
А так спс, качаем

Создавать темы 17-Мар-2011 00:41

[Профиль]  [ЛС] 

YUPI

Стаж: 5 лет 4 месяца

Сообщений: 56

Симпатии: 1

15 минут не слишком мало

Создавать темы 01-Июл-2012 20:07

[Профиль]  [ЛС] 

D1vaSH

Стаж: 5 лет 9 месяцев

Сообщений: 71

Симпатии: 3

Это короткометражка!

Создавать темы 02-Июл-2012 18:17

[Профиль]  [ЛС] 

ll4ik

Стаж: 5 лет 5 месяцев

Сообщений: 50

Симпатии: 3

Ююююююююю, классный мультик!

Создавать темы 30-Июл-2012 02:03

[Профиль]  [ЛС] 

Gen-X

Стаж: 4 года 9 месяцев

Сообщений: 125

Симпатии: 56

встаньте на раздачу, дайте скачать

Создавать темы 01-Янв-2013 13:31

[Профиль]  [ЛС] 
Показать сообщения:    
Ответить на тему

Текущее время: 24-Окт 09:18

Часовой пояс: UTC + 5



Вы не можете начинать темы
Вы не можете отвечать на сообщения
Вы не можете редактировать свои сообщения
Вы не можете удалять свои сообщения
Вы не можете голосовать в опросах
Вы не можете прикреплять файлы к сообщениям
Вы не можете скачивать файлы