BBC: Паразиты в организме человека (ВВС) [2004 г., документальный, TVRip]

Ответить на тему
 

Исмет ®

Стаж: 6 лет 10 месяцев

Сообщений: 8

BBC: Паразиты в организме человека
Год выпуска: 2004
Жанр: документальный
Продолжительность: 130 мин
Режиссер: ВВС
Описание: Новый проект BBC. Это исследование немного отталкивающего, но интересного мира животных-паразитов. Успешно эксплуатируя наши тела, они стали одними из самых опасных хищников на планете. Битва между паразитами и людьми длится уже тысячелетия и оказывает влияние на эволюцию обоих видов! Человеческое тело для паразитов — это зависимая колония и среда обитания... В фильме исследуется история завоевания паразитами человеческих тел. Мы узнаём, что паразиты не только используют энергию тел своих жертв, но даже берут под контроль их поведение. Перед такой научно доказанной правдой меркнут фильмы ужасов про вторжение инопланетных существ! Три части этого шокирующего фильма BBC восстанавливают полную картину кровавой битвы. Мы получаем от учёных предостережение о том, что паразиты могут в конечном итоге победить. Шокирующие факты, кадры, истории из уст жертв паразитов! Узнай о паразитах всё! В фильме имеются эпизоды с натуралистическими подробностями, поэтому подумайте, стоит ли вам их смотреть.
Доп. информация: Всем советую посмотреть и сделать для себя выводы!
Качество: SATrip
Формат: AVI
Видео кодек: DivX
Аудио кодек: MPEG Audio
Видео:
Декодер -(DX50) KMP Video Codec(DivX5-libcodec.dll)
Формат -Major Type: Video - Sub Type: YUY2
VideoInfo: YUY2 512X384, 16 bits
Формат -Major Type: Video - Sub Type: YV12
VideoInfo: YV12 512X-384, 12 bits
Аудио:
Декодер -(0x55) KMP Audio Codec(MP3 Audio-libmad.dll)
Формат -Major Type: Audio - Sub Type: PCM
WaveFormatEx: PCM(0x1), 44100 Hz, 16 Bits, 2 Ch

Media Info

Video #0
ID : 0
Format : MPEG-4 Visual
Format settings, BVOP : Yes
Format settings, QPel : No
Format settings, GMC : No warppoints
Format settings, Matrix : Default (H.263)
Muxing mode : Packed bitstream
Codec ID : DX50
Codec ID/Hint : DivX 5
Duration : 38mn 50s
Bit rate : 899 Kbps
Width : 512 pixels
Height : 384 pixels
Display aspect ratio : 4:3
Frame rate : 25.000 fps
Resolution : 24 bits
Colorimetry : 4:2:0
Scan type : Progressive
Bits/(Pixel*Frame) : 0.183
Stream size : 250 MiB (87%)
Writing library : DivX 6.4.0 (UTC 2006-10-03)
Audio #1
ID : 1
Format : MPEG Audio
Format version : Version 1
Format profile : Layer 3
Codec ID : 55
Codec ID/Hint : MP3
Duration : 38mn 50s
Bit rate mode : Constant
Bit rate : 128 Kbps
Channel(s) : 2 channels
Sampling rate : 44.1 KHz
Resolution : 16 bits
Stream size : 35.5 MiB (12%)
Alignment : Split accross interleaves
Interleave, duration : 40 ms (1.00 video frame)
Interleave, preload duration : 501 ms

Скриншоты





Последний раз редактировалось: Исмет (2011-11-22 23:38), всего редактировалось 7 раз(а)

Создавать темы 20-Мар-2011 21:02

[Профиль]  [ЛС] 

Sinema_uz

Стаж: 6 лет 10 месяцев

Сообщений: 303

Симпатии: 4

очень познавателные документалка

Создавать темы 21-Мар-2011 12:37

[Профиль]  [ЛС] 

shavkat8999

Стаж: 6 лет 9 месяцев

Сообщений: 108

Симпатии: 5

прибавьте скорости

Создавать темы 24-Янв-2012 23:19

[Профиль]  [ЛС] 

shavkat8999

Стаж: 6 лет 9 месяцев

Сообщений: 108

Симпатии: 5

Исмет, прибавь скорости 5 день качаю

Создавать темы 29-Янв-2012 21:31

[Профиль]  [ЛС] 

Hayotdjon

Стаж: 5 лет 8 месяцев

Сообщений: 13

С.К.О.Р.О.С.Т.Ь

Создавать темы 02-Сен-2012 14:51

[Профиль]  [ЛС] 

Hayotdjon

Стаж: 5 лет 8 месяцев

Сообщений: 13

прибавьте скорости

Создавать темы 07-Сен-2012 19:34

[Профиль]  [ЛС] 
Показать сообщения:    
Ответить на тему

Текущее время: 19-Ноя 06:23

Часовой пояс: UTC + 5



Вы не можете начинать темы
Вы не можете отвечать на сообщения
Вы не можете редактировать свои сообщения
Вы не можете удалять свои сообщения
Вы не можете голосовать в опросах
Вы не можете прикреплять файлы к сообщениям
Вы не можете скачивать файлы