BBC: Космос (Люк Кемпбелл) [2001 г., документальный, SATRip]

Ответить на тему
 

Исмет ®

Стаж: 6 лет 8 месяцев

Сообщений: 8

BBC: Космос

Год выпуска: 2001
Cтрана:Великобритания
Жанр: документальный
Продолжительность: 150 мин
Режиссер: Люк Кемпбелл
Описание: Посмотрев на ночное небо, вы увидите множество светящихся точек, каждая из которых может оказаться целой галактикой. Новый документальный сериал «Космос» — это увлекательный и красочный рассказ о величайших загадках мироздания: рождении сверхновых звезд и гибели целых звездных систем, о голубых гигантах и красных карликах, о строении и истории возникновения нашей солнечной системы.
В сериале использованы самые современные технологии съемки с применением специально разработанной компьютерной графики и уникальные кадры, полученные при помощи космической техники. Теперь вы сможете наглядно представить себе, насколько необъятна и удивительна Вселенная!
Качество: SATRip
Формат: AVI
Видео кодек: DivX
Аудио кодек: MPEG Audio
Видео:
Декодер -(DX50) KMP Video Codec(DivX5-libcodec.dll)
Формат -Major Type: Video - Sub Type: YUY2
VideoInfo: YUY2 608X448, 16 bits
Формат -Major Type: Video - Sub Type: YV12
VideoInfo: YV12 768X-448, 12 bits
Аудио:
Декодер -(0x2000) KMP Audio Codec(AC3(Dolby Digital)-liba52.dll)
Формат -Major Type: Audio - Sub Type: PCM
WaveFormatEx: PCM(0x1), 48000 Hz, 16 Bits, 2 Ch

Media Info

Video #0
ID : 0
Format : MPEG-4 Visual
Format settings, BVOP : Yes
Format settings, QPel : No
Format settings, GMC : No warppoints
Format settings, Matrix : Default (H.263)
Muxing mode : Packed bitstream
Codec ID : DX50
Codec ID/Hint : DivX 5
Duration : 1h 12mn
Bit rate : 1 147 Kbps
Width : 608 pixels
Height : 448 pixels
Display aspect ratio : 4:3
Frame rate : 25.000 fps
Resolution : 24 bits
Colorimetry : 4:2:0
Scan type : Progressive
Bits/(Pixel*Frame) : 0.168
Stream size : 595 MiB (85%)
Writing library : DivX 5.0.5 (UTC 2003-04-24)
Audio #1
ID : 1
Format : AC-3
Format/Info : Audio Coding 3
Codec ID : 2000
Duration : 1h 12mn
Bit rate mode : Constant
Bit rate : 192 Kbps
Channel(s) : 2 channels
Channel positions : L R
Sampling rate : 48.0 KHz
Stream size : 99.6 MiB (14%)
Alignment : Split accross interleaves
Interleave, duration : 40 ms (1.00 video frame)
Interleave, preload duration : 500 ms

Скриншоты





Последний раз редактировалось: Исмет (2011-11-22 23:31), всего редактировалось 5 раз(а)

Создавать темы 20-Мар-2011 22:38

[Профиль]  [ЛС] 

boss-aka

Стаж: 6 лет 3 месяца

Сообщений: 17

Симпатии: 3

трек жутко тормозит.

Создавать темы 13-Сен-2011 08:24

[Профиль]  [ЛС] 

boss-aka

Стаж: 6 лет 3 месяца

Сообщений: 17

Симпатии: 3

Куда делись все Сиды ?

Создавать темы 14-Сен-2011 15:23

[Профиль]  [ЛС] 

abdukarim

Стаж: 6 лет 8 месяцев

Сообщений: 144

Симпатии: 18

скрины перезалейте

Создавать темы 16-Сен-2011 14:02

[Профиль]  [ЛС] 

john_BoY07

Стаж: 6 лет 11 месяцев

Сообщений: 123

Симпатии: 44

т
скрины перезалей

Создавать темы 22-Окт-2011 06:42

[Профиль]  [ЛС] 

Lithium

Стаж: 7 лет

Сообщений: 35

добавьте скорости плз

Создавать темы 25-Окт-2011 20:37

[Профиль]  [ЛС] 

dimagrad

Стаж: 5 лет 8 месяцев

Сообщений: 6

почему такая низкая скорость скачивания?

Создавать темы 25-Фев-2012 19:23

[Профиль]  [ЛС] 

bahrom81

Стаж: 7 лет 3 месяца

Сообщений: 40

Опять на постере и на скриншотах какая то кошка на зеленом траве бежит. Когда добежит он?

Создавать темы 25-Фев-2012 21:23

[Профиль]  [ЛС] 

типа халявщик

Стаж: 3 года 10 месяцев

Сообщений: 37

bahrom81,
Если люди хотлинком не завяжут то никогда...

Создавать темы 10-Фев-2014 23:41

[Профиль]  [ЛС] 
Показать сообщения:    
Ответить на тему

Текущее время: 21-Сен 08:31

Часовой пояс: UTC + 5



Вы не можете начинать темы
Вы не можете отвечать на сообщения
Вы не можете редактировать свои сообщения
Вы не можете удалять свои сообщения
Вы не можете голосовать в опросах
Вы не можете прикреплять файлы к сообщениям
Вы не можете скачивать файлы