Ковбой Бибоп: Достучаться до небес / Cowboy Bebop: Knockin' on Heaven's door (Ватанабэ Синъитиро) [1 из 1] [JAP + субтитры] [2001 г., приключения, комедия, фантастика, DVDRip]

Ответить на тему
 

MassiveAttack ®

Стаж: 7 лет

Сообщений: 23

Симпатии: 1

Ковбой Бибоп: Достучаться до небес / Cowboy Bebop: Knockin' on Heaven's door
Год выпуска: 2001
Страна: Япония
Жанр: приключения, комедия, фантастика
Продолжительность: 114м
Перевод: Субтитры
Режиссер: Ватанабэ Синъитиро
Описание: Накануне Хэллоуина на Марсе произошла трагедия: было применено неизвестное биологическое оружие, и сотни людей погибли или оказались в больнице. За голову террориста назначили баснословную награду, и команда «охотников за головами» с корабля Bebop 268170 решила взяться за это прибыльное задание.
По ходу расследования Спайк Шпигель знакомится с Электрой, которая также ищет жестокого преступника. Его зовут Винсент, раньше они служили вместе, поэтому мотивы Электры не так просты. Фэй Валентайн тоже не осталась в стороне, но она не подозревает, что ей грозит смертельная опасность: Винсент стремится отомстить всем людям, и приближающийся День Всех Святых вполне подходит для этой цели.
Фильм «Достучаться до небес» лучше всего смотреть после сериала, но и сам по себе он представляет несомненный интерес: захватывающий сюжет, в котором экшен-сцены перемежаются яркими диалогами, блюзово-джазовый саундтрек Ёко Канно и великолепная прорисовка мира будущего. Поклонники «Ковбоя Бибопа» найдут здесь множество отсылок к сериалу и встретят знакомых второстепенных персонажей. В фильме каждый из главных героев получил возможность проявить себя, однако большая часть времени отведена Спайку, кроме того, его характер великолепно раскрывается в финальной композиции Gotta Knock A Little Harde.
© Расселл Д. Джонс, World Art
Доп. информация: перевод только субтитры, (рус) а так все на японском

Video&audio info

General
Format : Matroska
File size : 4.73 GiB
Duration : 1h 55mn
Overall bit rate : 5 882 Kbps
Movie name : Cowboy Bebop - Tengoku no Tobira (2001) (Knockin` on Heaven`s Door)
Encoded date : UTC 2011-01-03 02:23:54
Writing application : mkvmerge v4.3.0 ('Escape from the Island') сборка от Sep 5 2010 10:30:51
Writing library : libebml v1.0.0 + libmatroska v1.0.0
Cover : Yes
Video
ID : 1
Format : AVC
Format/Info : Advanced Video Codec
Format profile : High@L5.1
Format settings, CABAC : Yes
Format settings, ReFrames : 8 frames
Muxing mode : Container profile=Unknown@5.1
Codec ID : V_MPEG4/ISO/AVC
Duration : 1h 55mn
Bit rate : 4 677 Kbps
Nominal bit rate : 4 802 Kbps
Width : 1 280 pixels
Height : 688 pixels
Display aspect ratio : 1.860
Frame rate : 23.976 fps
Resolution : 8 bits
Colorimetry : 4:2:0
Scan type : Progressive
Bits/(Pixel*Frame) : 0.221
Stream size : 3.76 GiB (80%)
Writing library : x264 core 58 svn-736M
Encoding settings : cabac=1 / ref=8 / deblock=1:-3:-3 / analyse=0x3:0x133 / me=umh / subme=6 / me-prepass=0 / brdo=1 / mixed_ref=1 / me_range=16 / chroma_me=1 / trellis=0 / 8x8dct=1 / cqm=2 / deadzone=9,9 / chroma_qp_offset=0 / threads=6 / nr=0 / decimate=1 / mbaff=0 / bframes=5 / b_pyramid=1 / b_adapt=1 / b_bias=0 / direct=1 / wpredb=1 / bime=1 / keyint=250 / keyint_min=25 / scenecut=40(pre) / rc=2pass / bitrate=4802 / ratetol=1.0 / rceq='blurCplx^(1-qComp)' / qcomp=1.00 / qpmin=10 / qpmax=51 / qpstep=4 / cplxblur=20.0 / qblur=0.5 / ip_ratio=1.40 / pb_ratio=1.30 / aq=1:0.5:15.0
Language : Japanese
Audio #1
ID : 2
Format : AC-3
Format/Info : Audio Coding 3
Format_Settings_ModeExtension : CM (complete main)
Codec ID : A_AC3
Duration : 1h 55mn
Bit rate mode : Constant
Bit rate : 640 Kbps
Channel(s) : 6 channels
Channel positions : Front: L C R, Side: L R, LFE
Sampling rate : 48.0 KHz
Stream size : 527 MiB (11%)
Title : Jap
Language : Japanese
Audio #2
ID : 3
Format : AC-3
Format/Info : Audio Coding 3
Format_Settings_ModeExtension : CM (complete main)
Codec ID : A_AC3
Duration : 1h 55mn
Bit rate mode : Constant
Bit rate : 448 Kbps
Channel(s) : 6 channels
Channel positions : Front: L C R, Side: L R, LFE
Sampling rate : 48.0 KHz
Stream size : 369 MiB (8%)
Title : Rus
Language : Russian
Text #1
ID : 4
Format : ASS
Codec ID : S_TEXT/ASS
Codec ID/Info : Advanced Sub Station Alpha
Title : Rus
Language : Russian
Text #2
ID : 5
Format : ASS
Codec ID : S_TEXT/ASS
Codec ID/Info : Advanced Sub Station Alpha
Title : Eng
http://www.world-art.ru/animation/animation.php?id=25
Качество: DVDRip
Формат: MKV
Видео кодек: Другой MPEG4
Аудио кодек: AC3
Видео: Video: MPEG4 Video (H264) 1280x688 23.98fps Bit rate : 4 677 Kbps [Video]
Аудио: Audio: Dolby AC3 48000Hz 6ch Bit rate : 640 Kbps Channel(s): 6 channels [Audio] Language : Japanese Subtitle: Advanced SubStation Alpha Format : ASS Codec ID : S_TEXT/ASS [Subtitle] RUS

Скриншоты






Последний раз редактировалось: MassiveAttack (2011-03-23 17:56), всего редактировалось 3 раз(а)

Создавать темы 22-Мар-2011 21:39

[Профиль]  [ЛС] 

MassiveAttack ®

Стаж: 7 лет

Сообщений: 23

Симпатии: 1

а что не так с релизом?

Создавать темы 22-Мар-2011 22:21

[Профиль]  [ЛС] 

armitage

Стаж: 6 лет 8 месяцев

Сообщений: 8

MassiveAttack
У вас не соответствует тех. данные (Audio #1 Jap, Audio #2 Rus, Text #1 Rus, Text #2 Eng) с
Доп. информация: перевод только субтитры, (рус) а так все на японском
а так наверное модеры скоро проверят

Создавать темы 22-Мар-2011 23:39

[Профиль]  [ЛС] 

MassiveAttack ®

Стаж: 7 лет

Сообщений: 23

Симпатии: 1

все в доп. информации же во вкладке "Video&audio info" там вся информация или на главную вынести нужно?

Создавать темы 23-Мар-2011 06:41

[Профиль]  [ЛС] 

gunner11

Стаж: 7 лет 2 месяца

Сообщений: 30

Шикарная вещь от моего любимого режиссера! =)
А сериал Бибопа вообще улет!
Добавлено спустя 3 минуты 19 секунд:
MassiveAttack
А почему Качество: DVDRip? Это ведь HD версия...


Последний раз редактировалось: gunner11 (2011-03-23 07:18), всего редактировалось 1 раз

Создавать темы 23-Мар-2011 07:18

[Профиль]  [ЛС] 

armitage

Стаж: 6 лет 8 месяцев

Сообщений: 8

MassiveAttack
в доп. информации имеется две звуковые дорожки, японская и русская, а вы пишите что перевод только субтитры, и поэтому я написал про несоответствие, также там у вас указано что еще есть английские сабы.
gunner11
скорее всего это апскейл, ответ должен знать MassiveAttack или хотя бы скажите чей релиз.

Создавать темы 23-Мар-2011 20:27

[Профиль]  [ЛС] 

Farnerud

Стаж: 6 лет 10 месяцев

Сообщений: 13

... я когда нибуть его скачаю?, уже месяц пытаюсь скачать... MassiveAttack, не отключайся и дай скорости плиз!


Последний раз редактировалось: Farnerud (2011-07-21 21:08), всего редактировалось 1 раз

Создавать темы 21-Июл-2011 21:08

[Профиль]  [ЛС] 

Топик был перенесен из форума DVD, DVDRip в форум OVA/OAV (Original Video Animation)

dominion69

Создавать темы 23-Мар-2012 21:13

 

anna140987

Стаж: 4 года 9 месяцев

Сообщений: 97

Симпатии: 12

пожалуйста, встаньте на раздачу!

Создавать темы 19-Янв-2013 21:25

[Профиль]  [ЛС] 

anna140987

Стаж: 4 года 9 месяцев

Сообщений: 97

Симпатии: 12

Если на раздаче нет никого и полного источника никогда не было значит ждать нет смысла?

Создавать темы 09-Фев-2013 10:29

[Профиль]  [ЛС] 
Показать сообщения:    
Ответить на тему

Текущее время: 23-Окт 09:28

Часовой пояс: UTC + 5



Вы не можете начинать темы
Вы не можете отвечать на сообщения
Вы не можете редактировать свои сообщения
Вы не можете удалять свои сообщения
Вы не можете голосовать в опросах
Вы не можете прикреплять файлы к сообщениям
Вы не можете скачивать файлы