Человеческое тело: Грани Возможного / Human Body (2008 г . Документальный, HDRip )

Ответить на тему
 

tasikss ®

Стаж: 6 лет 11 месяцев

Сообщений: 139

Симпатии: 10

*Год выпуска: 2008
*Страна: США
*Жанр: Документальный
*Продолжительность: 2:45
*Режиссер: Дэн Клифтон /Dan Clifton/, Марк Рэдис /Mark Radice/
*Студия : Dangerous Films
*Описание: Столкнувшись с экстремальными испытаниями тело человека способно проявить поразительную выносливость, используя свои скрытые резервы. В основу этого захватывающего сериала легли реальные события с людьми, которые выжили лишь благодаря удивительной концентрации своих умственных и физических сил. Зрелищные спецэффекты помогут вам понять, как действует наше тело и наш мозг в минуты кризиса, и теперь, возможно, не останется сомнений в том, что все мы немного супермены.

Давайте узнаем

Четырёхсерийный документальный фильм от Discovery Channel раскроет нам тайны человеческого тела. На что мы способны в экстренных ситуациях? Зафиксировано множество случаев, когда перед лицом опасности человек проявлял невероятную выносливость или силу благодаря скрытым резервам человеческого организма. Какие чудеса мы можем творить, когда это потребуется для сохранения своей жизни? Давайте узнаем.
*Язык: Русский профессиональный перевод + Оригинальная дорожка (Отдельно)

THUMBNAILS




*Качество: BDRip
*Формат: XviD,
*Видео кодек: MPEG-4 codec
*Видео: 720 x 400; 29.970 fps; ~ 2100 kbps; ~0.25 bit/pixe
*Аудио: 48 kHz; 5.1 ch; 384.00 kbps; AC3 Dolby Digital

*тема: Зрение, Сила мышц , Человеческий мозг , Осязание

Скриншоты

Media Info

Человеческое тело Грани Возможного. Зрение Human Body Pushing the Limits. Sight (2008) .BDRip.XviD.AC3.-HQ-ViDEO

General
Complete name : G:\СКАЧКА\Человеческое тело\Человеческое тело Грани Возможного. Зрение Human Body Pushing the Limits. Sight (2008) .BDRip.XviD.AC3.-HQ-ViDEO.avi
Format : AVI
Format/Info : Audio Video Interleave
File size : 745 MiB
Duration : 41mn 37s
Overall bit rate : 2 502 Kbps
Movie name : Человеческое тело: Грани Возможного. Зрение / Human Body: Pushing the Limits. Sight (2008)
Director : SENATOR (BDRip 720)
Writing application : VirtualDubMod 1.5.10.2 (build 2540/release)
Copyright : HQ-ViDEO (www.hq-video.ru)
Comment : 12.02.2009
Video
ID : 0
Format : MPEG-4 Visual
Format profile : Advanced [email protected]
Format settings, BVOP : 2
Format settings, QPel : No
Format settings, GMC : No warppoints
Format settings, Matrix : Default (MPEG)
Muxing mode : Packed bitstream
Codec ID : XVID
Codec ID/Hint : XviD
Duration : 41mn 37s
Bit rate : 2 106 Kbps
Width : 720 pixels
Height : 400 pixels
Display aspect ratio : 16:9
Frame rate : 29.970 fps
Color space : YUV
Chroma subsampling : 4:2:0
Bit depth : 8 bits
Scan type : Progressive
Compression mode : Lossy
Bits/(Pixel*Frame) : 0.244
Stream size : 627 MiB (84%)
Writing library : XviD 1.2.1 (UTC 2008-12-04)
Audio
ID : 1
Format : AC-3
Format/Info : Audio Coding 3
Mode extension : CM (complete main)
Codec ID : 2000
Duration : 41mn 37s
Bit rate mode : Constant
Bit rate : 384 Kbps
Channel(s) : 6 channels
Channel positions : Front: L C R, Side: L R, LFE
Sampling rate : 48.0 KHz
Bit depth : 16 bits
Compression mode : Lossy
Stream size : 114 MiB (15%)
Alignment : Split accross interleaves
Interleave, duration : 33 ms (1.00 video frame)
Interleave, preload duration : 500 ms

Человеческое тело Грани Возможного. Сила мышц Human Body Pushing the Limits. Strength (2008).RUS.BDRip.XviD.AC3.-HQ-ViDEO

General
Complete name : G:\СКАЧКА\Человеческое тело\Человеческое тело Грани Возможного. Сила мышц Human Body Pushing the Limits. Strength (2008).RUS.BDRip.XviD.AC3.-HQ-ViDEO.avi
Format : AVI
Format/Info : Audio Video Interleave
File size : 745 MiB
Duration : 40mn 38s
Overall bit rate : 2 562 Kbps
Movie name : Человеческое тело: Грани Возможного. Сила мышц / Human Body: Pushing the Limits. Strength (2008)
Director : SENATOR (BDRip 720)
Writing application : VirtualDubMod 1.5.10.2 (build 2540/release)
Copyright : HQ-ViDEO (www.hq-video.ru)
Comment : 12.02.2009
Video
ID : 0
Format : MPEG-4 Visual
Format profile : Advanced [email protected]
Format settings, BVOP : 2
Format settings, QPel : No
Format settings, GMC : No warppoints
Format settings, Matrix : Default (MPEG)
Muxing mode : Packed bitstream
Codec ID : XVID
Codec ID/Hint : XviD
Duration : 40mn 38s
Bit rate : 2 166 Kbps
Width : 720 pixels
Height : 400 pixels
Display aspect ratio : 16:9
Frame rate : 29.970 fps
Color space : YUV
Chroma subsampling : 4:2:0
Bit depth : 8 bits
Scan type : Progressive
Compression mode : Lossy
Bits/(Pixel*Frame) : 0.251
Stream size : 630 MiB (85%)
Writing library : XviD 1.2.1 (UTC 2008-12-04)
Audio
ID : 1
Format : AC-3
Format/Info : Audio Coding 3
Mode extension : CM (complete main)
Codec ID : 2000
Duration : 40mn 38s
Bit rate mode : Constant
Bit rate : 384 Kbps
Channel(s) : 6 channels
Channel positions : Front: L C R, Side: L R, LFE
Sampling rate : 48.0 KHz
Bit depth : 16 bits
Compression mode : Lossy
Stream size : 112 MiB (15%)
Alignment : Split accross interleaves
Interleave, duration : 33 ms (1.00 video frame)
Interleave, preload duration : 500 ms

Человеческое тело Грани Возможного. Человеческий мозг Human Body Pushing the Limits. Brain Power (2008).RUS.BDRip.XviD.AC3.-HQ-ViDEO

General
Complete name : G:\СКАЧКА\Человеческое тело\Человеческое тело Грани Возможного. Человеческий мозг Human Body Pushing the Limits. Brain Power (2008).RUS.BDRip.XviD.AC3.-HQ-ViDEO.avi
Format : AVI
Format/Info : Audio Video Interleave
File size : 745 MiB
Duration : 41mn 11s
Overall bit rate : 2 528 Kbps
Movie name : Человеческое тело: Грани Возможного. Человеческий мозг / Human Body: Pushing the Limits. Brain Power (2008)
Director : SENATOR (BDRip 720)
Writing application : VirtualDubMod 1.5.10.2 (build 2540/release)
Copyright : HQ-ViDEO (www.hq-video.ru)
Comment : 12.02.2009
Video
ID : 0
Format : MPEG-4 Visual
Format profile : Advanced [email protected]
Format settings, BVOP : 2
Format settings, QPel : No
Format settings, GMC : No warppoints
Format settings, Matrix : Default (MPEG)
Muxing mode : Packed bitstream
Codec ID : XVID
Codec ID/Hint : XviD
Duration : 41mn 11s
Bit rate : 2 132 Kbps
Width : 720 pixels
Height : 400 pixels
Display aspect ratio : 16:9
Frame rate : 29.970 fps
Color space : YUV
Chroma subsampling : 4:2:0
Bit depth : 8 bits
Scan type : Progressive
Compression mode : Lossy
Bits/(Pixel*Frame) : 0.247
Stream size : 628 MiB (84%)
Writing library : XviD 1.2.1 (UTC 2008-12-04)
Audio
ID : 1
Format : AC-3
Format/Info : Audio Coding 3
Mode extension : CM (complete main)
Codec ID : 2000
Duration : 41mn 11s
Bit rate mode : Constant
Bit rate : 384 Kbps
Channel(s) : 6 channels
Channel positions : Front: L C R, Side: L R, LFE
Sampling rate : 48.0 KHz
Bit depth : 16 bits
Compression mode : Lossy
Stream size : 113 MiB (15%)
Alignment : Split accross interleaves
Interleave, duration : 33 ms (1.00 video frame)
Interleave, preload duration : 500 ms

Человеческое тело Грани Возможного. Осязание Human Body Pushing the Limits. Sensation (2008).RUS.BDRip.XviD.AC3.-HQ-ViDEO

General
Complete name : G:\СКАЧКА\Человеческое тело\Человеческое тело Грани Возможного. Осязание Human Body Pushing the Limits. Sensation (2008).RUS.BDRip.XviD.AC3.-HQ-ViDEO.avi
Format : AVI
Format/Info : Audio Video Interleave
File size : 745 MiB
Duration : 41mn 45s
Overall bit rate : 2 495 Kbps
Movie name : Человеческое тело: Грани Возможного. Осязание / Human Body: Pushing the Limits. Sensation (2008)
Director : SENATOR (BDRip 720)
Writing application : VirtualDubMod 1.5.10.2 (build 2540/release)
Copyright : HQ-ViDEO (www.hq-video.ru)
Comment : 12.02.2009
Video
ID : 0
Format : MPEG-4 Visual
Format profile : Advanced [email protected]
Format settings, BVOP : 2
Format settings, QPel : No
Format settings, GMC : No warppoints
Format settings, Matrix : Default (MPEG)
Muxing mode : Packed bitstream
Codec ID : XVID
Codec ID/Hint : XviD
Duration : 41mn 45s
Bit rate : 2 099 Kbps
Width : 720 pixels
Height : 400 pixels
Display aspect ratio : 16:9
Frame rate : 29.970 fps
Color space : YUV
Chroma subsampling : 4:2:0
Bit depth : 8 bits
Scan type : Progressive
Compression mode : Lossy
Bits/(Pixel*Frame) : 0.243
Stream size : 627 MiB (84%)
Writing library : XviD 1.2.1 (UTC 2008-12-04)
Audio
ID : 1
Format : AC-3
Format/Info : Audio Coding 3
Mode extension : CM (complete main)
Codec ID : 2000
Duration : 41mn 45s
Bit rate mode : Constant
Bit rate : 384 Kbps
Channel(s) : 6 channels
Channel positions : Front: L C R, Side: L R, LFE
Sampling rate : 48.0 KHz
Bit depth : 16 bits
Compression mode : Lossy
Stream size : 115 MiB (15%)
Alignment : Split accross interleaves
Interleave, duration : 33 ms (1.00 video frame)
Interleave, preload duration : 500 ms

_________________
Подпись отключена за нарушение правил форума


Последний раз редактировалось: tasikss (2012-02-08 18:00), всего редактировалось 8 раз(а)

Создавать темы 24-Мар-2011 15:15

[Профиль]  [ЛС] 

StrEL

Стаж: 7 лет

Сообщений: 13

Симпатии: 2

Круто!

Создавать темы 24-Мар-2011 17:21

[Профиль]  [ЛС] 

Thelaz

Стаж: 7 лет 3 месяца

Сообщений: 26

Я уже видел на дискавери (Молодец мега релиз)

Создавать темы 25-Мар-2011 01:34

[Профиль]  [ЛС] 

Sinema_uz

Стаж: 6 лет 11 месяцев

Сообщений: 303

Симпатии: 4

посмотрим ay az

Создавать темы 25-Мар-2011 03:59

[Профиль]  [ЛС] 

tasikss ®

Стаж: 6 лет 11 месяцев

Сообщений: 139

Симпатии: 10

farhoduz bs

_________________
Подпись отключена за нарушение правил форума

Создавать темы 18-Апр-2011 01:59

[Профиль]  [ЛС] 

Аня

Стаж: 7 лет

Сообщений: 23

НАРООД ДАЙТЕ СКОРОСТИ 50% нормально скачал ша ваще скорость от 2 до 10 максимум 16кб что такое..

Создавать темы 18-Апр-2011 15:40

[Профиль]  [ЛС] 

Has&Hay

Стаж: 6 лет 8 месяцев

Сообщений: 138

Симпатии: 6

Спс tasikss

Создавать темы 23-Май-2011 17:41

[Профиль]  [ЛС] 

tasikss ®

Стаж: 6 лет 11 месяцев

Сообщений: 139

Симпатии: 10

Has&Hay az

_________________
Подпись отключена за нарушение правил форума

Создавать темы 23-Май-2011 17:43

[Профиль]  [ЛС] 

nwbigbob

Стаж: 7 лет 1 месяц

Сообщений: 144

Симпатии: 2

Хороший фильм, а главное объясняют всё так просто, перевод класс, есть местами юмор. +5 ay
Даа, очень познавательно! Главное на простом понятном языке! ay

Создавать темы 12-Сен-2011 14:38

[Профиль]  [ЛС] 

almas

Стаж: 5 лет 11 месяцев

Сообщений: 30

Симпатии: 2

Дайте скорости. очень хочу посмотреть фильм. а скорость "0"...(((

Создавать темы 04-Янв-2012 12:37

[Профиль]  [ЛС] 

timtash

Стаж: 6 лет 3 месяца

Сообщений: 44

Симпатии: 3

НЕ ГРУЗИТЕ СКРИНЫ НА MYFACЕ НЕ ПОКАЗЫВАЕТ,,,,,,

Создавать темы 05-Янв-2012 17:58

[Профиль]  [ЛС] 

drag0n

Стаж: 6 лет 8 месяцев

Сообщений: 24

Симпатии: 3

интересная вещь, правда, повторяют часто одни и те же моменты видео)

_________________
Подпись отключена за нарушение правил форума

Создавать темы 27-Янв-2012 14:51

[Профиль]  [ЛС] 

asil

Стаж: 6 лет 10 месяцев

Сообщений: 17

Дайте скорости. очень хочу посмотреть фильм. а скорость "0"

Создавать темы 11-Мар-2012 20:10

[Профиль]  [ЛС] 

sainttrader

Стаж: 6 лет 11 месяцев

Сообщений: 1

скорость ? что то слабовато качает ?

Создавать темы 17-Мар-2012 18:21

[Профиль]  [ЛС] 
Показать сообщения:    
Ответить на тему

Текущее время: 18-Дек 15:57

Часовой пояс: UTC + 5



Вы не можете начинать темы
Вы не можете отвечать на сообщения
Вы не можете редактировать свои сообщения
Вы не можете удалять свои сообщения
Вы не можете голосовать в опросах
Вы не можете прикреплять файлы к сообщениям
Вы не можете скачивать файлы