Синтел / Sintel (Колин Леви) [2010 г., Мультфильм, Короткометражка, Фэнтези, HDRip]

Ответить на тему
 

Mr_ALo ®

Стаж: 7 лет 8 месяцев

Сообщений: 367

Симпатии: 20

Синтел / Sintel Год выпуска: 2010
Страна: Нидерланды
Жанр: Мультфильм, Короткометражка, Фэнтези
Продолжительность: 00:14:48
Перевод: Дублированный [Лицензия]
Режиссер: Колин Леви
В ролях: Том Хоффман, Халина Рейн
Описание: Эта трогательная история произошла в красочном и фантастическом мире. В мире, где одинокой девушке по имени Синтель предстоит отправиться на поиски своего необычного маленького питомца, которого она приютила… Эта история о крепкой дружбе и неожиданных поворотах судьбы, которая порой бывает очень сурова…- -Качество: HDRip
Формат: AVI
Видео: XviD 720x304 24.000 fps, 1 313 Kbps
Аудио #1: AC3 48.0 KHz 2 channels, 192 Kbps [Rus] (полное дублирование)
Аудио #2: AC3 48.0 KHz 2 channels, 192 Kbps [Rus] (одноголосый)
Аудио #3: AC3 48.0 KHz 6 channels, 448 Kbps [Eng]

MediaInfo

General
Complete name : E:\Films\Синтел 2010 HDRip.avi
Format : AVI
Format/Info : Audio Video Interleave
File size : 229 MiB
Duration : 14mn 48s
Overall bit rate : 2 163 Kbps
Writing application : VirtualDubModRus 1.5.10.2 (build 2542/release)
Writing library : VirtualDubMod build 2542/release
Video
ID : 0
Format : MPEG-4 Visual
Format profile : Advanced [email protected]
Format settings, BVOP : 2
Format settings, QPel : No
Format settings, GMC : No warppoints
Format settings, Matrix : Custom
Codec ID : XVID
Codec ID/Hint : XviD
Duration : 14mn 48s
Bit rate : 1 313 Kbps
Width : 720 pixels
Height : 304 pixels
Display aspect ratio : 2.35:1
Frame rate : 24.000 fps
Color space : YUV
Chroma subsampling : 4:2:0
Bit depth : 8 bits
Scan type : Progressive
Compression mode : Lossy
Bits/(Pixel*Frame) : 0.250
Stream size : 139 MiB (61%)
Writing library : XviD 1.2.1 (UTC 2008-12-04)
Audio #1
ID : 1
Format : AC-3
Format/Info : Audio Coding 3
Mode extension : CM (complete main)
Codec ID : 2000
Duration : 14mn 48s
Bit rate mode : Constant
Bit rate : 192 Kbps
Channel(s) : 2 channels
Channel positions : Front: L R
Sampling rate : 48.0 KHz
Bit depth : 16 bits
Compression mode : Lossy
Stream size : 20.3 MiB (9%)
Alignment : Split accross interleaves
Interleave, duration : 42 ms (1.00 video frame)
Interleave, preload duration : 500 ms
Audio #2
ID : 2
Format : AC-3
Format/Info : Audio Coding 3
Mode extension : CM (complete main)
Codec ID : 2000
Duration : 14mn 47s
Bit rate mode : Constant
Bit rate : 192 Kbps
Channel(s) : 2 channels
Channel positions : Front: L R
Sampling rate : 48.0 KHz
Bit depth : 16 bits
Compression mode : Lossy
Stream size : 20.3 MiB (9%)
Alignment : Split accross interleaves
Interleave, duration : 42 ms (1.00 video frame)
Interleave, preload duration : 500 ms
Audio #3
ID : 3
Format : AC-3
Format/Info : Audio Coding 3
Mode extension : CM (complete main)
Codec ID : 2000
Duration : 14mn 48s
Bit rate mode : Constant
Bit rate : 448 Kbps
Channel(s) : 6 channels
Channel positions : Front: L C R, Side: L R, LFE
Sampling rate : 48.0 KHz
Bit depth : 16 bits
Compression mode : Lossy
Stream size : 47.4 MiB (21%)
Alignment : Split accross interleaves
Interleave, duration : 42 ms (1.00 video frame)
Interleave, preload duration : 500 ms

Скриншоты






Последний раз редактировалось: Mr_ALo (2012-01-23 21:24), всего редактировалось 2 раз(а)

Создавать темы 26-Мар-2011 12:16

[Профиль]  [ЛС] 

nigga22480

Стаж: 7 лет 3 месяца

Сообщений: 211

Симпатии: 13

Всем рекоммендую, отличный мульт, спасибо Mr_ALo, за раздачу.

Создавать темы 26-Мар-2011 13:48

[Профиль]  [ЛС] 

Creedos

Стаж: 6 лет 7 месяцев

Сообщений: 44

ну посмотрим


Последний раз редактировалось: Creedos (2011-05-13 06:08), всего редактировалось 1 раз

Создавать темы 13-Май-2011 00:17

[Профиль]  [ЛС] 

алиса

Стаж: 5 лет 7 месяцев

Сообщений: 2

дайте скорости пожалуйста

Создавать темы 06-Янв-2012 23:02

[Профиль]  [ЛС] 

Venator

Стаж: 6 лет 6 месяцев

Сообщений: 31

Блин я 1 раз вижу мультик который длиться 12 минут и может так захватить... спасибо большое...
Как говориться Краткость сестра толанта....

Создавать темы 07-Янв-2012 14:33

[Профиль]  [ЛС] 
Показать сообщения:    
Ответить на тему

Текущее время: 21-Авг 06:00

Часовой пояс: UTC + 5



Вы не можете начинать темы
Вы не можете отвечать на сообщения
Вы не можете редактировать свои сообщения
Вы не можете удалять свои сообщения
Вы не можете голосовать в опросах
Вы не можете прикреплять файлы к сообщениям
Вы не можете скачивать файлы