DoTA Allstars. Natus Vincere vs 2l8 Game 2 @ Intel Challenge Group A [2011 г., HDTVRip]

Ответить на тему
 

LiS ®

Стаж: 6 лет 9 месяцев

Сообщений: 11

Natus Vincere vs 2l8 Game 2 @ Intel Challenge Group A
Год выпуска: 2011
Страна: Украина vs. Россия
Продолжительность: 40мин. 53с.
Описание: Игра команд Украины(Natus Vincere) и Росии(2l8). Комментирует v1lat.
Качество: HDTVRip
Формат: flv
Видео кодек: H.26x
Аудио кодек: AAC
Видео: AVC, 675 Kbps, 640х360, 25.000 fps, 8 bits
Аудио: AAC, 96.7 Kbps, 2 channels, 44.1 KHz, 16 bits

МедиаИнфо

Complete name : C:\Documents and Settings\UserXP\Мои документы\Downloads\DotA\Новая папка\NaVi vs 2l8 game 2.flv
Format : Flash Video
File size : 228 MiB
Duration : 40mn 53s
Overall bit rate : 780 Kbps
httphostheader : v23.lscache4.c.youtube.com
Video
Format : AVC
Format/Info : Advanced Video Codec
Format profile : [email protected]
Format settings, CABAC : Yes
Format settings, ReFrames : 3 frames
Duration : 40mn 53s
Bit rate : 675 Kbps
Width : 640 pixels
Height : 360 pixels
Display aspect ratio : 16:9
Frame rate mode : Constant
Frame rate : 25.000 fps
Color space : YUV
Chroma subsampling : 4:2:0
Bit depth : 8 bits
Scan type : Progressive
Bits/(Pixel*Frame) : 0.117
Stream size : 197 MiB (87%)
Audio
Format : AAC
Format/Info : Advanced Audio Codec
Format version : Version 4
Format profile : LC
Duration : 40mn 53s
Bit rate : 96.7 Kbps
Channel(s) : 2 channels
Channel positions : Front: L R
Sampling rate : 44.1 KHz
Bit depth : 16 bits
Stream size : 28.3 MiB (12%)

Скриншоты






Последний раз редактировалось: LiS (2011-04-01 13:36), всего редактировалось 2 раз(а)

Создавать темы 31-Мар-2011 16:57

[Профиль]  [ЛС] 

m1llennium

Стаж: 6 лет 8 месяцев

Сообщений: 19

thk friend+)

Создавать темы 31-Мар-2011 18:52

[Профиль]  [ЛС] 

jokerbek

Стаж: 6 лет 11 месяцев

Сообщений: 184

Симпатии: 9

at at at фуууууу

Создавать темы 03-Апр-2011 09:08

[Профиль]  [ЛС] 

Drejik

Стаж: 7 лет 5 месяцев

Сообщений: 2

Скорости прибавьтеее!!!!

Создавать темы 12-Апр-2011 08:34

[Профиль]  [ЛС] 

bumblebee

Стаж: 7 лет 3 месяца

Сообщений: 97

Симпатии: 1

кто скачал вернитесь на раздачу bc bc bc

Создавать темы 12-Апр-2011 22:38

[Профиль]  [ЛС] 

crozin1

Стаж: 7 лет 2 месяца

Сообщений: 21

Кто скачал отпишитесь. как ролик?

Создавать темы 12-Апр-2011 22:42

[Профиль]  [ЛС] 

mirzavoy

Стаж: 6 лет 10 месяцев

Сообщений: 30

Сидер вернись и добавь скорости плиз ak

Создавать темы 13-Апр-2011 10:59

[Профиль]  [ЛС] 

Doc

Стаж: 7 лет 9 месяцев

Сообщений: 42

клаас ещё бы таких роликов

_________________
Подпись отключена за нарушение правил форума

Создавать темы 16-Апр-2011 21:01

[Профиль]  [ЛС] 

Romio

Стаж: 7 лет 2 месяца

Сообщений: 67

Симпатии: 1

Скачем оценим. надеюсь :bb:
Добавлено спустя 2 часа 22 минуты 32 секунды:
Посматрел наконец игра на Ура!!! только качество видео слабовато!


Последний раз редактировалось: Romio (2011-04-17 18:31), всего редактировалось 1 раз

Создавать темы 17-Апр-2011 18:31

[Профиль]  [ЛС] 

Визитер

Стаж: 6 лет 7 месяцев

Сообщений: 17

Спасибки ролик оболденный

Создавать темы 20-Апр-2011 18:18

[Профиль]  [ЛС] 
Показать сообщения:    
Ответить на тему

Текущее время: 25-Ноя 07:05

Часовой пояс: UTC + 5



Вы не можете начинать темы
Вы не можете отвечать на сообщения
Вы не можете редактировать свои сообщения
Вы не можете удалять свои сообщения
Вы не можете голосовать в опросах
Вы не можете прикреплять файлы к сообщениям
Вы не можете скачивать файлы