DoTA Allstars. Natus Vincere vs oXmoze. Intel Challenge Super Cup Group A Game 1 [2011 г.]

Ответить на тему
 

LiS ®

Стаж: 6 лет 6 месяцев

Сообщений: 11

DoTA Allstars. Natus Vincere vs oXmoze. Intel Challenge Super Cup Group A Game 1

Год выпуска: 2011
Страна: Украина vs Чехия
Продолжительность: 44 мин 7 сек
Описание: Игра команд Украины(Natus Vincere) и Чехии(oXmoze). Комментирует v1lat.
Качество: HDTVRip
Формат: flv
Видео кодек: H.26x
Аудио кодек: AAC
Видео: AVC, 675 Kbps, 640х360, 25.000 fps, 8 bits
Аудио: AAC, 96.7 Kbps, 2 channels, 44.1 KHz, 16 bits

Медиаинфо

Format : Flash Video
File size : 237 MiB
Duration : 44mn 8s
Overall bit rate : 780 Kbps
httphostheader : v23.lscache4.c.youtube.com
Video
Format : AVC
Format/Info : Advanced Video Codec
Format profile : [email protected]
Format settings, CABAC : Yes
Format settings, ReFrames : 3 frames
Duration : 40mn 53s
Bit rate : 675 Kbps
Width : 640 pixels
Height : 360 pixels
Display aspect ratio : 16:9
Frame rate mode : Constant
Frame rate : 25.000 fps
Color space : YUV
Chroma subsampling : 4:2:0
Bit depth : 8 bits
Scan type : Progressive
Bits/(Pixel*Frame) : 0.117
Stream size : 197 MiB (87%)
Audio
Format : AAC
Format/Info : Advanced Audio Codec
Format version : Version 4
Format profile : LC
Duration : 40mn 53s
Bit rate : 96.7 Kbps
Channel(s) : 2 channels
Channel positions : Front: L R
Sampling rate : 44.1 KHz
Bit depth : 16 bits
Stream size : 28.3 MiB (12%)

Скриншоты






Последний раз редактировалось: LiS (2011-04-05 20:28), всего редактировалось 1 раз

Создавать темы 04-Апр-2011 19:41

[Профиль]  [ЛС] 

Evropa

Стаж: 6 лет 7 месяцев

Сообщений: 174

Симпатии: 30

Вложи ешё, и спасибо большое!!!

Создавать темы 04-Апр-2011 20:41

[Профиль]  [ЛС] 

Slevin

Стаж: 6 лет 7 месяцев

Сообщений: 54

Симпатии: 1

пффф за 44 минуты Гг, слабовато))

Создавать темы 04-Апр-2011 20:57

[Профиль]  [ЛС] 

L0Ve

Стаж: 6 лет 6 месяцев

Сообщений: 9

Огромное тебе спасибо! ay

Создавать темы 04-Апр-2011 22:11

[Профиль]  [ЛС] 

pasha-a-2005

Стаж: 6 лет 3 месяца

Сообщений: 5

Сииииидеееррр вернись!!!

Создавать темы 04-Май-2011 13:27

[Профиль]  [ЛС] 

baronnn

Стаж: 7 лет

Сообщений: 22

Симпатии: 1

Спасибо! вообще Natus Vincere молодцы классно играют и мумы тоже хороши.Если будит ещё заливай zd ещё раз спасибо!!! ay

Создавать темы 05-Май-2011 14:54

[Профиль]  [ЛС] 
Показать сообщения:    
Ответить на тему

Текущее время: 19-Авг 19:58

Часовой пояс: UTC + 5



Вы не можете начинать темы
Вы не можете отвечать на сообщения
Вы не можете редактировать свои сообщения
Вы не можете удалять свои сообщения
Вы не можете голосовать в опросах
Вы не можете прикреплять файлы к сообщениям
Вы не можете скачивать файлы