DotA Allstars Natus Vincere vs MYM @ Intel Challenge SuperCup WB Round 2 - Game 1 [2011 г., CamRip]

Ответить на тему
 

LiS ®

Стаж: 6 лет 8 месяцев

Сообщений: 11

DotA Allstars Natus Vincere vs MYM @ Intel Challenge SuperCup WB Round 2 - Game 1
Год выпуска: 2011
Страна: Украина-Дания
Продолжительность: 43:31
Описание: Первая из 3 игра между двумя очень сильными командами- NaVi с Украины и MYM из Дании. Комментируют игру Вилат и Каспер.
Качество: HDTVRip
Формат: flv
Видео кодек: H.26x
Аудио кодек: AAC
Видео: AVC,536 Kbps,1 365 Kbps,640x360,25.000 fps,8 bits
Аудио: AAC, 96.7 Kbps, 2 channels, 44.1 KHz, 16 bits

Media Info

Format : MPEG-4
Format profile : Base Media / Version 2
Codec ID : mp42
File size : 199 MiB
Duration : 43mn 41s
Overall bit rate : 636 Kbps
Encoded date : UTC 2011-03-24 00:42:49
Tagged date : UTC 2011-03-24 00:42:49
gsst : 0
gstd : 2621960
gssd : B4A7DD0C2MH1301810550647992
gshh : v2.cache7.c.youtube.com
Video
ID : 1
Format : AVC
Format/Info : Advanced Video Codec
Format profile : [email protected]
Format settings, CABAC : No
Format settings, ReFrames : 1 frame
Codec ID : avc1
Codec ID/Info : Advanced Video Coding
Duration : 43mn 41s
Bit rate mode : Variable
Bit rate : 536 Kbps
Maximum bit rate : 1 365 Kbps
Width : 640 pixels
Height : 360 pixels
Display aspect ratio : 16:9
Frame rate mode : Constant
Frame rate : 25.000 fps
Color space : YUV
Chroma subsampling : 4:2:0
Bit depth : 8 bits
Scan type : Progressive
Bits/(Pixel*Frame) : 0.093
Stream size : 168 MiB (84%)
Tagged date : UTC 2011-03-24 00:44:13
Audio
ID : 2
Format : AAC
Format/Info : Advanced Audio Codec
Format version : Version 4
Format profile : LC
Codec ID : 40
Duration : 43mn 41s
Bit rate mode : Variable
Bit rate : 96.0 Kbps
Maximum bit rate : 115 Kbps
Channel(s) : 2 channels
Channel positions : Front: L R
Sampling rate : 44.1 KHz
Stream size : 30.0 MiB (15%)
Title : (C) 2007 Google Inc. v08.13.2007.
Encoded date : UTC 2011-03-24 00:43:19
Tagged date : UTC 2011-03-24 00:44:13

Скриншоты





Создавать темы 17-Апр-2011 10:39

[Профиль]  [ЛС] 

MeGaTrON

Стаж: 6 лет 6 месяцев

Сообщений: 5

Лис спс я смотрий

Создавать темы 17-Апр-2011 10:52

[Профиль]  [ЛС] 

PROSTREET

Стаж: 7 лет 6 месяцев

Сообщений: 78

Симпатии: 2

ещё бы в качестве было бы кул)

Создавать темы 17-Апр-2011 11:52

[Профиль]  [ЛС] 

Nikolay K.

Стаж: 7 лет

Сообщений: 10

LiS спасибо!!! а продолжения нет???(в смысле остальных двух игр)

Создавать темы 17-Апр-2011 14:08

[Профиль]  [ЛС] 

[email protected]

Стаж: 6 лет 8 месяцев

Сообщений: 138

Симпатии: 10

Не ну MYM Полюбому круче ))) !!

Создавать темы 17-Апр-2011 15:34

[Профиль]  [ЛС] 

L0Ve

Стаж: 6 лет 8 месяцев

Сообщений: 9

LiS Огромное Спасибо!!! bp
Закидывай ещё буду скачивать с удовольствием!!! ab

Создавать темы 22-Апр-2011 20:39

[Профиль]  [ЛС] 

mudaris

Стаж: 6 лет 4 месяца

Сообщений: 27

сиди на раздаче плз, спасибо

Создавать темы 07-Дек-2012 21:42

[Профиль]  [ЛС] 
Показать сообщения:    
Ответить на тему

Текущее время: 20-Окт 12:15

Часовой пояс: UTC + 5



Вы не можете начинать темы
Вы не можете отвечать на сообщения
Вы не можете редактировать свои сообщения
Вы не можете удалять свои сообщения
Вы не можете голосовать в опросах
Вы не можете прикреплять файлы к сообщениям
Вы не можете скачивать файлы