Я, Видеоигра / I, Videogame (Джим Экселс) [2007 г., Документальный, SATRip]

Ответить на тему
 

ikbol77 ®

Стаж: 7 лет 1 месяц

Сообщений: 9

Я, Видеоигра / I, Videogame
Год выпуска: 2007
Жанр: Документальный
Страна: США
Производство: Discovery Channel
Продолжительность: 45:22 (5 серий)
Русский перевод: Синхронный
Режиссер: Джим Экселс
Описание: История революции видеоигр насчитывает десятилетия, начиная от простых забав 50-х годов до сеохватывающей мощной волны в современной массовой культуре, которая соперничает - и возможно скоро превзойдет - кино и телевидение. То, что в прошлом зарождалось как субкультура, разрослось и вышло за рамки жанров, став уникальной формой самовыражения, влияющей абсолютно на все - от современных военных столкновений до межличностных отношений. "Я, Видеоигра" - это всестороннее последовательное исследование прошлого, настоящего и будущего видеоигр и геймеров. Начиная со времен одной из первых игр Pong и до наших дней, от Atari 2600 до Nintendo и PlayStation, фильм "Я, Видеоигра" рассказывает о людях, идеях и технологиях видеоигр и их влиянии на нашу жизнь. Эволюция игр напоминает эффект маятника - раньше игры имитировали общество, а теперь общество воспроизводит игровые сюжеты. Используя интервью с титанами игровой индустрии прошлого и настоящего, этот пятисерийный фильм оценивает эволюцию видеоигр и их культурное влияние на современный мир развлечений.
Скриншоты:







Медиаинфо:
Доп. информация: General
Format : Flash Video
File size : 273 MiB
Duration : 45mn 22s
Overall bit rate : 840 Kbps
Video
Format : H.263
Codec ID : 2
Codec ID/Hint : Sorenson
Duration : 45mn 22s
Bit rate : 781 Kbps
Width : 720 pixels
Height : 480 pixels
Display aspect ratio : 3:2
Frame rate mode : Constant
Frame rate : 25.000 fps
Standard : NTSC
Bit depth : 8 bits
Compression mode : Lossy
Bits/(Pixel*Frame) : 0.090
Stream size : 254 MiB (93%)
Audio
Format : MPEG Audio
Format version : Version 1
Format profile : Layer 3
Mode : Joint stereo
Mode extension : MS Stereo
Codec ID : 2
Codec ID/Hint : MP3
Duration : 45mn 22s
Bit rate mode : Variable
Bit rate : 55.6 Kbps
Channel(s) : 2 channels
Sampling rate : 44.1 KHz
Compression mode : Lossy
Stream size : 18.1 MiB (7%)
Качество: SATRip
Format: Flash Video
Video: Flash Video 1 720x480 [Video]
Аудио кодек: MPEG Audio
Audio: MPEG Audio Layer 3 44100Hz stereo 80kbps [Audio]


Последний раз редактировалось: ikbol77 (2011-05-15 23:41), всего редактировалось 6 раз(а)

Создавать темы 01-Май-2011 21:39

[Профиль]  [ЛС] 

bahosh

Стаж: 7 лет 4 месяца

Сообщений: 91

Симпатии: 2

Почитайте правила.


Последний раз редактировалось: bahosh (2011-05-01 22:37), всего редактировалось 1 раз

Создавать темы 01-Май-2011 22:37

[Профиль]  [ЛС] 

carter

Стаж: 7 лет 2 месяца

Сообщений: 11

Это как раз для маньяков ag

Создавать темы 01-Май-2011 23:56

[Профиль]  [ЛС] 

MarshaLL-SD

Стаж: 6 лет 6 месяцев

Сообщений: 8

ikbol77СПС! az

Создавать темы 01-Май-2011 23:59

[Профиль]  [ЛС] 

bahosh

Стаж: 7 лет 4 месяца

Сообщений: 91

Симпатии: 2

ikbol77 Сутки на исправление иначе перенесу в тестовый форум.

Создавать темы 11-Май-2011 23:45

[Профиль]  [ЛС] 

ikbol77 ®

Стаж: 7 лет 1 месяц

Сообщений: 9

а что исправлят, говори по конкретнее, какой пункт я ваш нарушаю?

Создавать темы 15-Май-2011 23:22

[Профиль]  [ЛС] 

x6

Стаж: 6 лет 8 месяцев

Сообщений: 171

Симпатии: 3

ikbol77 укажи битрейт видео и айдио..

_________________
Подпись отключена за нарушение правил форума

Создавать темы 15-Май-2011 23:46

[Профиль]  [ЛС] 

Flexx

Стаж: 6 лет 9 месяцев

Сообщений: 4

Можно скорости добавить???

Создавать темы 15-Май-2011 23:48

[Профиль]  [ЛС] 
Показать сообщения:    
Ответить на тему

Текущее время: 24-Окт 07:21

Часовой пояс: UTC + 5



Вы не можете начинать темы
Вы не можете отвечать на сообщения
Вы не можете редактировать свои сообщения
Вы не можете удалять свои сообщения
Вы не можете голосовать в опросах
Вы не можете прикреплять файлы к сообщениям
Вы не можете скачивать файлы