Убить Билла. Части 1 и 2 / Kill Bill vol.1 | Kill Bill vol.2 (Квентин Тарантино) [2003 г., Боевик, BDRip]

Ответить на тему
 

stratum ®

Стаж: 8 лет 9 месяцев

Сообщений: 6

Убить Билла. Части 1 и 2 / Kill Bill vol.1 | Kill Bill vol.2
Режиссер: Квентин Тарантино
В ролях: Ума Турман, Люси Лью, Вивика А. Фокс, Дэрил Ханна, Дэвид Кэррадайн, Майкл Мэдсен, Джули Дрейфус, Чиаки Курияма, Сонни Чиба, Джа <~~> Лью
Описание: Cмертоносные Гадюки - самая жестокая банда убийц. А Черная - лучшая из них. И ее предали свои!.. Пуля в голову. Красное на белом. Кровь на подвенечном платье, темнота... Но она воскресла! Вернулась, чтобы напомнить о себе. Теперь только безжалостная месть успокоит ее сердце! И не ждите пощады, пока последняя капля крови предателей не стечет по лезвию ее самурайского меча!

Kill Bill vol.1

 Год выпуска: 2003
Страна: США
Жанр: Боевик
Продолжительность: 01:50:43
Качество: BDRip
Формат: MKV
Видео кодек: H.264
Аудио кодек: DTS
Видео: 1920x800, x264, 23.976 fps, ~9631 kbps
Аудио 1: Русский: DTS 5.1, 768 kbps (Дубляж)
Аудио 2: Русский DTS 5.1, 768 kbps (П.Гланц и И.Королёва)
Аудио 3: Русский: DTS 5.1, 768 kbps (Гаврилов)
Аудио 4: Русский: AC3, 6ch 448 kbps (Гоблин, присутствует ненормативная лексика)
Аудио 5: Английский: DTS 5.1, 1536 kbps
Субтитры 1: Русские (c R5, ass);
Субтитры 2: Русские (по Гоблину, присутствует ненормативная лексика, ass)
Субтитры 3: Английские (ass)
Субтитры 4: Английские (на японские диалоги, ass) и ещё куча европейских (все ass)

MediaInfo

Общее
Уникальный идентификатор : 200612120871340462409803943570625508669 (0x96EC7D344D4D6E84BE519792621BB53D)
Полное имя : G:\Kill.Bill.Vol.1(2005)1080p.BDRip.x264.mkv
Формат : Matroska
Размер файла : 10,7 Гбайт
Продолжительность : 1 ч. 50 м.
Общий поток : 13,9 Мбит/сек
Название фильма : -=HANSMER=- (HQ-Films.ws)
Дата кодирования : UTC 2008-09-18 19:47:01
Программа кодирования : mkvmerge v2.2.0 ('Turn It On Again') built on Mar 4 2008 13:20:25
Библиотека кодирования : libebml v0.7.7 + libmatroska v0.8.1
Обложка : Yes / Yes / Yes
Видео
Идентификатор : 1
Формат : AVC
Формат/Информация : Advanced Video Codec
Профиль формата : [email protected]
Параметр CABAC формата : Да
Параметр ReFrames формата : 5 кадров
Параметры GOP формата : N=1
Идентификатор кодека : V_MPEG4/ISO/AVC
Продолжительность : 1 ч. 50 м.
Битрейт : 9631 Кбит/сек
Ширина : 1920 пикс.
Высота : 800 пикс.
Соотношение сторон : 2,40:1
Частота кадров : 23,976 кадр/сек
Цветовое пространство : YUV
Подвыборка цветности : 4:2:0
Битовая глубина : 8 бит
Тип развёртки : Прогрессивная
Бит/(Пиксели*Кадры) : 0.262
Размер потока : 7,24 Гбайт (68%)
Заголовок : Kill.Bill.Vol.1.2003.1080p.BluRay.DTS.x264-ESiR
Библиотека кодирования : x264 core 61 r965M 3d2983d
Настройки программы : cabac=1 / ref=5 / deblock=1:-3:-3 / analyse=0x3:0x113 / me=umh / subme=7 / psy_rd=1.0:1.0 / brdo=1 / mixed_ref=1 / me_range=32 / chroma_me=1 / trellis=2 / 8x8dct=1 / cqm=2 / deadzone=21,11 / chroma_qp_offset=-4 / threads=3 / nr=0 / decimate=1 / mbaff=0 / bframes=16 / b_pyramid=1 / b_adapt=1 / b_bias=0 / direct=3 / wpredb=1 / bime=1 / keyint=250 / keyint_min=25 / scenecut=40(pre) / rc=2pass / bitrate=9631 / ratetol=1.0 / qcomp=1.00 / qpmin=10 / qpmax=51 / qpstep=4 / cplxblur=20.0 / qblur=0.5 / ip_ratio=1.40 / pb_ratio=1.30 / aq=2:1.00
Язык : English
Аудио #1
Идентификатор : 2
Формат : DTS
Формат/Информация : Digital Theater Systems
Идентификатор кодека : A_DTS
Продолжительность : 1 ч. 50 м.
Вид битрейта : Постоянный
Битрейт : 755 Кбит/сек
Каналы : 6 каналов
Расположение каналов : Front: L C R, Side: L R, LFE
Частота : 48,0 КГц
Битовая глубина : 24 бит
Метод сжатия : С потерями
Размер потока : 598 Мбайт (5%)
Заголовок : Dubbed
Язык : Russian
Аудио #2
Идентификатор : 3
Формат : DTS
Формат/Информация : Digital Theater Systems
Идентификатор кодека : A_DTS
Продолжительность : 1 ч. 50 м.
Вид битрейта : Постоянный
Битрейт : 755 Кбит/сек
Каналы : 6 каналов
Расположение каналов : Front: L C R, Side: L R, LFE
Частота : 48,0 КГц
Битовая глубина : 24 бит
Метод сжатия : С потерями
Размер потока : 598 Мбайт (5%)
Заголовок : Glanz
Язык : Russian
Аудио #3
Идентификатор : 4
Формат : DTS
Формат/Информация : Digital Theater Systems
Идентификатор кодека : A_DTS
Продолжительность : 1 ч. 50 м.
Вид битрейта : Постоянный
Битрейт : 755 Кбит/сек
Каналы : 6 каналов
Расположение каналов : Front: L C R, Side: L R, LFE
Частота : 48,0 КГц
Битовая глубина : 24 бит
Метод сжатия : С потерями
Размер потока : 598 Мбайт (5%)
Заголовок : Gavrilov
Язык : Russian
Аудио #4
Идентификатор : 5
Формат : AC-3
Формат/Информация : Audio Coding 3
Расширение режима : CM (complete main)
Идентификатор кодека : A_AC3
Продолжительность : 1 ч. 50 м.
Вид битрейта : Постоянный
Битрейт : 448 Кбит/сек
Каналы : 6 каналов
Расположение каналов : Front: L C R, Side: L R, LFE
Частота : 48,0 КГц
Битовая глубина : 16 бит
Метод сжатия : С потерями
Размер потока : 355 Мбайт (3%)
Заголовок : Goblin
Язык : Russian
Аудио #5
Идентификатор : 6
Формат : DTS
Формат/Информация : Digital Theater Systems
Идентификатор кодека : A_DTS
Продолжительность : 1 ч. 50 м.
Вид битрейта : Постоянный
Битрейт : 1510 Кбит/сек
Каналы : 6 каналов
Расположение каналов : Front: L C R, Side: L R, LFE
Частота : 48,0 КГц
Битовая глубина : 24 бит
Метод сжатия : С потерями
Размер потока : 1,17 Гбайт (11%)
Язык : English
Текст #1
Идентификатор : 7
Формат : ASS
Идентификатор кодека : S_TEXT/ASS
Идентификатор кодека/Информация : Advanced Sub Station Alpha
Метод сжатия : Без потерь
Заголовок : from R5
Язык : Russian
Текст #2
Идентификатор : 8
Формат : ASS
Идентификатор кодека : S_TEXT/ASS
Идентификатор кодека/Информация : Advanced Sub Station Alpha
Метод сжатия : Без потерь
Заголовок : Goblin
Язык : Russian
Текст #3
Идентификатор : 9
Формат : ASS
Идентификатор кодека : S_TEXT/ASS
Идентификатор кодека/Информация : Advanced Sub Station Alpha
Метод сжатия : Без потерь
Заголовок : English
Язык : English
Текст #4
Идентификатор : 10
Формат : ASS
Идентификатор кодека : S_TEXT/ASS
Идентификатор кодека/Информация : Advanced Sub Station Alpha
Метод сжатия : Без потерь
Заголовок : English (non-English speaking parts only)
Язык : English
Текст #5
Идентификатор : 11
Формат : ASS
Идентификатор кодека : S_TEXT/ASS
Идентификатор кодека/Информация : Advanced Sub Station Alpha
Метод сжатия : Без потерь
Заголовок : Finnish
Язык : Finnish
Текст #6
Идентификатор : 12
Формат : ASS
Идентификатор кодека : S_TEXT/ASS
Идентификатор кодека/Информация : Advanced Sub Station Alpha
Метод сжатия : Без потерь
Заголовок : French
Язык : French
Текст #7
Идентификатор : 13
Формат : ASS
Идентификатор кодека : S_TEXT/ASS
Идентификатор кодека/Информация : Advanced Sub Station Alpha
Метод сжатия : Без потерь
Заголовок : Hungarian
Язык : Hungarian
Текст #8
Идентификатор : 14
Формат : ASS
Идентификатор кодека : S_TEXT/ASS
Идентификатор кодека/Информация : Advanced Sub Station Alpha
Метод сжатия : Без потерь
Заголовок : Romanian
Язык : Romanian
Текст #9
Идентификатор : 15
Формат : ASS
Идентификатор кодека : S_TEXT/ASS
Идентификатор кодека/Информация : Advanced Sub Station Alpha
Метод сжатия : Без потерь
Заголовок : Slovenian
Язык : Slovenian
Текст #10
Идентификатор : 16
Формат : ASS
Идентификатор кодека : S_TEXT/ASS
Идентификатор кодека/Информация : Advanced Sub Station Alpha
Метод сжатия : Без потерь
Заголовок : Dutch
Язык : Dutch
Текст #11
Идентификатор : 17
Формат : ASS
Идентификатор кодека : S_TEXT/ASS
Идентификатор кодека/Информация : Advanced Sub Station Alpha
Метод сжатия : Без потерь
Заголовок : Greek
Язык : Greek
Текст #12
Идентификатор : 18
Формат : ASS
Идентификатор кодека : S_TEXT/ASS
Идентификатор кодека/Информация : Advanced Sub Station Alpha
Метод сжатия : Без потерь
Заголовок : Norwegian
Язык : Norwegian
Текст #13
Идентификатор : 19
Формат : ASS
Идентификатор кодека : S_TEXT/ASS
Идентификатор кодека/Информация : Advanced Sub Station Alpha
Метод сжатия : Без потерь
Заголовок : Polish
Язык : Polish
Текст #14
Идентификатор : 20
Формат : ASS
Идентификатор кодека : S_TEXT/ASS
Идентификатор кодека/Информация : Advanced Sub Station Alpha
Метод сжатия : Без потерь
Заголовок : Serbian
Язык : Serbian
Текст #15
Идентификатор : 21
Формат : ASS
Идентификатор кодека : S_TEXT/ASS
Идентификатор кодека/Информация : Advanced Sub Station Alpha
Метод сжатия : Без потерь
Заголовок : Czech
Язык : Czech
Текст #16
Идентификатор : 22
Формат : ASS
Идентификатор кодека : S_TEXT/ASS
Идентификатор кодека/Информация : Advanced Sub Station Alpha
Метод сжатия : Без потерь
Заголовок : Spanish
Язык : Spanish

Скриншоты






Kill Bill vol.2

 Год выпуска: 2004
Страна: США
Жанр: Боевик
Продолжительность: 02:16:57
Качество: BDRip
Формат: MKV
Видео кодек: H.264
Аудио кодек: DTS
Видео: 1920x800, 23.976 fps, x264, @ L4.1 (DXVA), ~11.353 Kbps
Аудио 1: Russian: 48 kHz,DTS, 3/2 (L,C,R,l,r) + LFE ch,~768.00 kbps avg (Дубляж)
Аудио 2: Russian: 48 kHz,DTS, 3/2 (L,C,R,l,r) + LFE ch,~1536.00 kbps avg (Двухголосый закадровый - Гланц и Королёва)
Аудио 3: Russian: 48 kHz,DTS, 3/2 (L,C,R,l,r) + LFE ch,~768.00 kbps avg (Одноголосый закадровый - Гаврилов)
Аудио 4: English: 48 kHz, DTS, 3/2 (L,C,R,l,r) + LFE ch,~1536.00 kbps avg
Субтитры 1: Русские (c R5, ass);
Субтитры 2: Английские (ass)

MediaInfo

Общее
Уникальный идентификатор : 192870949215594820573004150672875169587 (0x911997F96CBF9DC0A14424D043A1A733)
Полное имя : G:\Kill.Bill.Vol.2(2004)1080p.BDRip.x264.mkv
Формат : Matroska
Размер файла : 15,2 Гбайт
Продолжительность : 2 ч. 16 м.
Общий поток : 15,9 Мбит/сек
Название фильма : HDclub
Дата кодирования : UTC 2008-09-16 21:10:44
Программа кодирования : mkvmerge v2.2.0 ('Turn It On Again') built on Mar 4 2008 12:58:26
Библиотека кодирования : libebml v0.7.7 + libmatroska v0.8.1
Видео
Идентификатор : 1
Формат : AVC
Формат/Информация : Advanced Video Codec
Профиль формата : [email protected]
Параметр CABAC формата : Да
Параметр ReFrames формата : 5 кадров
Параметры GOP формата : N=1
Идентификатор кодека : V_MPEG4/ISO/AVC
Продолжительность : 2 ч. 16 м.
Битрейт : 11,4 Мбит/сек
Ширина : 1920 пикс.
Высота : 800 пикс.
Соотношение сторон : 2,40:1
Частота кадров : 23,976 кадр/сек
Цветовое пространство : YUV
Подвыборка цветности : 4:2:0
Битовая глубина : 8 бит
Тип развёртки : Прогрессивная
Бит/(Пиксели*Кадры) : 0.308
Размер потока : 10,6 Гбайт (70%)
Библиотека кодирования : x264 core 59 r859M ce13bb6
Настройки программы : cabac=1 / ref=5 / deblock=1:-3:-3 / analyse=0x3:0x113 / me=umh / subme=6 / me-prepass=0 / brdo=1 / mixed_ref=1 / me_range=24 / chroma_me=1 / trellis=0 / 8x8dct=1 / cqm=2 / deadzone=6,6 / chroma_qp_offset=0 / threads=6 / nr=0 / decimate=1 / mbaff=0 / fgo=9 / bframes=5 / b_pyramid=1 / b_adapt=1 / b_bias=0 / direct=1 / wpredb=1 / bime=1 / keyint=250 / keyint_min=25 / scenecut=40(pre) / rc=2pass / bitrate=11353 / ratetol=1.0 / rceq='blurCplx^(1-qComp)' / qcomp=1.00 / qpmin=10 / qpmax=51 / qpstep=4 / cplxblur=20.0 / qblur=0.5 / ip_ratio=1.40 / pb_ratio=1.16 / aq=2:1.00
Язык : English
Аудио #1
Идентификатор : 2
Формат : DTS
Формат/Информация : Digital Theater Systems
Идентификатор кодека : A_DTS
Продолжительность : 2 ч. 16 м.
Вид битрейта : Постоянный
Битрейт : 755 Кбит/сек
Каналы : 6 каналов
Расположение каналов : Front: L C R, Side: L R, LFE
Частота : 48,0 КГц
Битовая глубина : 24 бит
Метод сжатия : С потерями
Размер потока : 739 Мбайт (5%)
Заголовок : Дубляж
Язык : Russian
Аудио #2
Идентификатор : 3
Формат : DTS
Формат/Информация : Digital Theater Systems
Идентификатор кодека : A_DTS
Продолжительность : 2 ч. 16 м.
Вид битрейта : Постоянный
Битрейт : 1510 Кбит/сек
Каналы : 6 каналов
Расположение каналов : Front: L C R, Side: L R, LFE
Частота : 48,0 КГц
Битовая глубина : 24 бит
Метод сжатия : С потерями
Размер потока : 1,44 Гбайт (10%)
Заголовок : Закадровый двуголосый, Гланц и Королёва
Язык : Russian
Аудио #3
Идентификатор : 4
Формат : DTS
Формат/Информация : Digital Theater Systems
Идентификатор кодека : A_DTS
Продолжительность : 2 ч. 16 м.
Вид битрейта : Постоянный
Битрейт : 755 Кбит/сек
Каналы : 6 каналов
Расположение каналов : Front: L C R, Side: L R, LFE
Частота : 48,0 КГц
Битовая глубина : 24 бит
Метод сжатия : С потерями
Размер потока : 739 Мбайт (5%)
Заголовок : Одноголосый закадровый, Гаврилов
Язык : Russian
Аудио #4
Идентификатор : 5
Формат : DTS
Формат/Информация : Digital Theater Systems
Идентификатор кодека : A_DTS
Продолжительность : 2 ч. 16 м.
Вид битрейта : Постоянный
Битрейт : 1510 Кбит/сек
Каналы : 6 каналов
Расположение каналов : Front: L C R, Side: L R, LFE
Частота : 48,0 КГц
Битовая глубина : 24 бит
Метод сжатия : С потерями
Размер потока : 1,44 Гбайт (10%)
Язык : English
Текст #1
Идентификатор : 6
Формат : UTF-8
Идентификатор кодека : S_TEXT/UTF8
Идентификатор кодека/Информация : UTF-8 Plain Text
Язык : Russian
Текст #2
Идентификатор : 7
Формат : UTF-8
Идентификатор кодека : S_TEXT/UTF8
Идентификатор кодека/Информация : UTF-8 Plain Text
Язык : English

Скриншоты








Последний раз редактировалось: stratum (2013-05-29 06:20), всего редактировалось 8 раз(а)

Создавать темы 03-Май-2011 09:41

[Профиль]  [ЛС] 

grec_92

Стаж: 6 лет 10 месяцев

Сообщений: 12

Симпатии: 1

сид, когда раздача ? ночью или днем, чтобы знать когда комп оставлять ab
и можно ли опять озолотить ? до глюков на трекере стоял "Вечное золото"


Последний раз редактировалось: grec_92 (2011-07-19 23:38), всего редактировалось 1 раз

Создавать темы 19-Июл-2011 23:38

[Профиль]  [ЛС] 

uman

Стаж: 6 лет 5 месяцев

Сообщений: 1

Дайте РАЗДАЧУ!

Создавать темы 19-Сен-2011 15:54

[Профиль]  [ЛС] 

vitall

Стаж: 6 лет 5 месяцев

Сообщений: 25

отличный фильмец ab

Создавать темы 28-Сен-2011 10:06

[Профиль]  [ЛС] 

qudrat1982

Стаж: 6 лет 5 месяцев

Сообщений: 23

http://my.olam.uz/join?i=6506&t=c + интересные знакомствa, заглени !

Создавать темы 12-Ноя-2011 10:10

[Профиль]  [ЛС] 

esseker

Стаж: 7 лет 11 месяцев

Сообщений: 33

Симпатии: 2

stratum раздавай...

Создавать темы 19-Ноя-2011 04:16

[Профиль]  [ЛС] 

esseker

Стаж: 7 лет 11 месяцев

Сообщений: 33

Симпатии: 2

раздача будет или нет?

Создавать темы 20-Ноя-2011 18:15

[Профиль]  [ЛС] 

Anvar29

Стаж: 7 лет 2 месяца

Сообщений: 94

Симпатии: 5

Народ у меня есть оба части по 2,2 Гига, залить? Будет кто-нить качать?

Создавать темы 11-Янв-2012 12:28

[Профиль]  [ЛС] 

Sinema_uz

Стаж: 6 лет 9 месяцев

Сообщений: 303

Симпатии: 4

залей я буду качать!!!!!!!

Создавать темы 11-Янв-2012 12:51

[Профиль]  [ЛС] 

Anvar29

Стаж: 7 лет 2 месяца

Сообщений: 94

Симпатии: 5

Sinema_uz,
Ок. На днях залью на Зарубежные фильмы!

Создавать темы 11-Янв-2012 20:32

[Профиль]  [ЛС] 

mumin_mirzo

Стаж: 6 лет 10 месяцев

Сообщений: 1

Анвар ну давай, мы ждем...

Создавать темы 25-Янв-2012 22:27

[Профиль]  [ЛС] 

Anvar29

Стаж: 7 лет 2 месяца

Сообщений: 94

Симпатии: 5

mumin_mirzo,
http://tas-ix.net/viewtopic.php?p=309536#309536

Создавать темы 26-Янв-2012 20:18

[Профиль]  [ЛС] 

Wild CowboY

Стаж: 5 лет 9 месяцев

Сообщений: 16

Симпатии: 1

Ладно будем ждать

Создавать темы 01-Фев-2012 22:34

[Профиль]  [ЛС] 

Wild CowboY

Стаж: 5 лет 9 месяцев

Сообщений: 16

Симпатии: 1

Офигенный оригинальный фмльм, можно смотрет тысячу раз! Дайте скорост please

Создавать темы 02-Фев-2012 11:41

[Профиль]  [ЛС] 

Ochilbek

Стаж: 6 лет 5 месяцев

Сообщений: 10

Как скачать

Создавать темы 29-Май-2012 18:30

[Профиль]  [ЛС] 
Показать сообщения:    
Ответить на тему

Текущее время: 23-Окт 11:14

Часовой пояс: UTC + 5



Вы не можете начинать темы
Вы не можете отвечать на сообщения
Вы не можете редактировать свои сообщения
Вы не можете удалять свои сообщения
Вы не можете голосовать в опросах
Вы не можете прикреплять файлы к сообщениям
Вы не можете скачивать файлы