Мистер Бин: Коллекция / Mr.Bean: Collection (Джон Биркин, Ховард Дэйвис, Пол Вейланд) [1990-2007 г., Комедия, DVDRip]

Страницы :  1, 2, 3, 4  След.

Ответить на тему
 

Mansurbek84 ®

Стаж: 6 лет 9 месяцев

Сообщений: 80

Симпатии: 8

Мистер Бин: Коллекция / Mr.Bean: Collection
Год выпуска: 1990-1995
Страна: Великобритания, Tiger Aspect Productions
Жанр: Комедия
Продолжительность: 02:02:19 + 02:03:40 + 01:39:21
Перевод: Профессиональный (многоголосый, закадровый)
Режиссер: Джон Биркин, Ховард Дэйвис, Пол Вейланд
В ролях: Роуэн Аткинсон, Ховард Гудолл, Робин Дрисколл, Роджер Сломан и др.
Описание: Представляю Вашему вниманию специальное издание, включающее все 14 эпизодов и 6 часов смеха и веселья! Веселые выходки и незабываемые ляпы от человека-катастрофы, великого английского комика Роуэна Аткинсона (Мистер Бин).Каждый эпизод представляет собой отдельную историю из жизни Мистера Бина — нетипичного англичанина, живущего в собственном мире. Он постоянно попадает в комические ситуации, но с гордостью выходит из них, правда не всегда сухим... Образ Мистера Бина является гремучим коктейлем из злобы, подлости, невинности и гениальной изобретательности. Сдает ли он экзамен, во время которого не знает ответа ни на один вопрос, или находится НА пляже, где пытается переодеть плавки, не снимая брюк, или в церкви, где он отчаянно пытается не заснуть, мистер Бин всегда отмочит такое, что нормальному человеку и в голову бы не пришло.

Качество: DVDRip
Формат: AVI
Видео кодек: XviD
Аудио кодек: AC3
Видео: 640x480 (1.33:1), 25 fps, XviD build 50 ~1312 kbps avg, 0.17 bit/pixel
Звук #1: Русский (Многоголосый), 48 kHz, AC3 Dolby Digital, 2/0 (L,R) ch, ~224.00 kbps avg
Звук #2: Английский (Оригинал), 48 kHz, AC3 Dolby Digital, 2/0 (L,R) ch, ~128.00 kbps avg
 

Мед.инфо

General
Complete name : e:\Film\Comedy\Been\01.Mr.Bean.avi
Format : AVI
Format/Info : Audio Video Interleave
File size : 1.46 GiB
Duration : 2h 2mn
Overall bit rate : 1 705 Kbps
Writing application : VirtualDubMod 1.5.4.1 (build 2178/release)
Copyright : DVDRip by GENADIY
Video #0
ID : 0
Format : MPEG-4 Visual
Format profile : [email protected]
Format settings, BVOP : Yes
Format settings, QPel : No
Format settings, GMC : No warppoints
Format settings, Matrix : Custom
Codec ID : XVID
Codec ID/Hint : XviD
Duration : 2h 2mn
Bit rate : 1 344 Kbps
Width : 640 pixels
Height : 480 pixels
Display aspect ratio : 4:3
Frame rate : 25.000 fps
Resolution : 24 bits
Colorimetry : 4:2:0
Scan type : Progressive
Bits/(Pixel*Frame) : 0.175
Stream size : 1.15 GiB (79%)
Writing library : XviD 1.2.1 (UTC 2008-12-04)
Audio #1
ID : 1
Format : AC-3
Format/Info : Audio Coding 3
Codec ID : 2000
Duration : 2h 2mn
Bit rate mode : Constant
Bit rate : 224 Kbps
Channel(s) : 2 channels
Channel positions : L R
Sampling rate : 48.0 KHz
Stream size : 196 MiB (13%)
Alignment : Split accross interleaves
Interleave, duration : 96 ms (2.40 video frames)
Interleave, preload duration : 96 ms
Audio #2
ID : 2
Format : AC-3
Format/Info : Audio Coding 3
Codec ID : 2000
Duration : 2h 2mn
Bit rate mode : Constant
Bit rate : 128 Kbps
Channel(s) : 2 channels
Channel positions : L R
Sampling rate : 48.0 KHz
Stream size : 112 MiB (8%)
Alignment : Split accross interleaves
Interleave, duration : 96 ms (2.40 video frames)
Interleave, preload duration : 96 ms

Скриншоты





--Мистер Бин на отдыхе / Mr. Bean's Holiday
Год выпуска: 2007
Страна: Германия, Франция, Великобритания, Universal Pictures
Жанр: Комедия
Продолжительность: 01:28:50
Перевод: Профессиональный (полное дублирование)
Режиссер: Стив Бенделак
В ролях: Роуэн Эткинсон, Стив Пембертон, Лили Эткинсон, Престон Найман, Эмма де Кон, Арсен Моска, Стефан Дебак, Уиллем Дефо
Описание: Мистер Бин отправляется на отдых на юг Франции, оставляя за собой повсюду яркие следы своих приключений. Недотепа и бедолага, мистер Бин снимает о своих неудачах любительский видеофильм, который умудряется даже показать на большом экране Каннского фестиваля.

Качество: DVDRip
Формат: AVI
Видео кодек: XviD
Аудио кодек: AC3
Видео: 688x368 , 25.000 fps, XviD build 50 ~1870 kbps avg, 0.289 bit/pixel
Аудио : 48 kHz, AC3 Dolby Digital, 3/2 (L,C,R,l,r) + LFE ch, ~384.00 kbps avg
 

Мед.инфо

General
Complete name : e:\Film\Comedy\Been\misterbin_naotdihe.avi
Format : AVI
Format/Info : Audio Video Interleave
File size : 1.38 GiB
Duration : 1h 28mn
Overall bit rate : 2 219 Kbps
Writing application : VirtualDubMod 1.5.4.1 (build 2178/release)
Writing library : VirtualDubMod build 2178/release
Video #0
ID : 0
Format : MPEG-4 Visual
Format profile : [email protected]
Format settings, BVOP : Yes
Format settings, QPel : No
Format settings, GMC : No warppoints
Format settings, Matrix : Custom
Codec ID : XVID
Codec ID/Hint : XviD
Duration : 1h 28mn
Bit rate : 1 828 Kbps
Width : 688 pixels
Height : 368 pixels
Display aspect ratio : 1.870
Frame rate : 25.000 fps
Resolution : 24 bits
Colorimetry : 4:2:0
Scan type : Progressive
Bits/(Pixel*Frame) : 0.289
Stream size : 1.13 GiB (82%)
Writing library : XviD 1.2.0.dev47 (UTC 2006-11-01)
Audio #1
ID : 1
Format : AC-3
Format/Info : Audio Coding 3
Codec ID : 2000
Duration : 1h 28mn
Bit rate mode : Constant
Bit rate : 384 Kbps
Channel(s) : 6 channels
Channel positions : Front: L C R, Surround: L R, LFE
Sampling rate : 48.0 KHz
Stream size : 244 MiB (17%)
Alignment : Split accross interleaves
Interleave, duration : 96 ms (2.40 video frames)
Interleave, preload duration : 96 ms
Language : Russian

Скриншоты





Последний раз редактировалось: Mansurbek84 (2011-05-03 18:58), всего редактировалось 2 раз(а)

Создавать темы 03-Май-2011 18:45

[Профиль]  [ЛС] 

Mansurbek84 ®

Стаж: 6 лет 9 месяцев

Сообщений: 80

Симпатии: 8

pc приятного просмотра

Создавать темы 03-Май-2011 18:49

[Профиль]  [ЛС] 

Viden

Стаж: 6 лет 8 месяцев

Сообщений: 11

Симпатии: 1

Спс Будем качать ! Тока дай макс скорости ок ! zd

Создавать темы 03-Май-2011 20:24

[Профиль]  [ЛС] 

sobir84

Стаж: 6 лет 4 месяца

Сообщений: 3

Симпатии: 1

спасиба за комедию

Создавать темы 03-Май-2011 23:30

[Профиль]  [ЛС] 

ashot

Стаж: 6 лет 8 месяцев

Сообщений: 31

Симпатии: 1

скорости

Создавать темы 04-Май-2011 20:25

[Профиль]  [ЛС] 

Mansurbek84 ®

Стаж: 6 лет 9 месяцев

Сообщений: 80

Симпатии: 8

Сорри. Узнет не работает норм. Отключается чета. ac

Создавать темы 05-Май-2011 00:32

[Профиль]  [ЛС] 

Mansurbek84 ®

Стаж: 6 лет 9 месяцев

Сообщений: 80

Симпатии: 8

Ну спасибки. Скачали и тут же ливанули а.

Создавать темы 06-Май-2011 14:30

[Профиль]  [ЛС] 

seryoga-shadow

Стаж: 6 лет 6 месяцев

Сообщений: 78

Симпатии: 2

Mansurbek84,спасибо. Постараюсь помогать с раздачей как можно дольше.Молодец! ay

Создавать темы 07-Май-2011 08:27

[Профиль]  [ЛС] 

Kenex

Стаж: 6 лет 6 месяцев

Сообщений: 71

Симпатии: 2

всего 14 эпизодов?а у тебя есть ещё 1 полнометражка и агент Джони Инглиш?

Создавать темы 07-Май-2011 17:47

[Профиль]  [ЛС] 

Mansurbek84 ®

Стаж: 6 лет 9 месяцев

Сообщений: 80

Симпатии: 8

Джони Инглиш есть на трекера сам заливал вот http://tas-ix.net/viewtopic.php?t=24313 . Кроме этих больше нет.


Последний раз редактировалось: Mansurbek84 (2011-05-08 09:21), всего редактировалось 1 раз

Создавать темы 08-Май-2011 09:21

[Профиль]  [ЛС] 

Lazerboy

Стаж: 6 лет 3 месяца

Сообщений: 57

Симпатии: 13

Мансурбек брат дай скорость пожалуйста! zd

Создавать темы 08-Май-2011 21:21

[Профиль]  [ЛС] 

RFT

Стаж: 6 лет 9 месяцев

Сообщений: 21

Симпатии: 1

этот Мистер Бин Вообще прикольный чудак. ag

Создавать темы 09-Май-2011 14:56

[Профиль]  [ЛС] 

Mansurbek84 ®

Стаж: 6 лет 9 месяцев

Сообщений: 80

Симпатии: 8

ага ag если качну еще серии если они есть то сразу сюда ay

Создавать темы 09-Май-2011 20:57

[Профиль]  [ЛС] 

Valentein

Стаж: 6 лет 4 месяца

Сообщений: 39

Симпатии: 1

ООО как же я любила смотреть серии с его участием в детстве.. Буду качать, спасибо bq

Создавать темы 22-Май-2011 21:37

[Профиль]  [ЛС] 

doniyor1332

Стаж: 6 лет 11 месяцев

Сообщений: 44

Симпатии: 8

Mansurbek84
img.uz не работает. Сделай все на другой img хостинг.


Последний раз редактировалось: doniyor1332 (2011-09-24 07:01), всего редактировалось 1 раз

Создавать темы 24-Сен-2011 07:01

[Профиль]  [ЛС] 
Показать сообщения:    
Ответить на тему

Текущее время: 22-Авг 23:48

Часовой пояс: UTC + 5



Вы не можете начинать темы
Вы не можете отвечать на сообщения
Вы не можете редактировать свои сообщения
Вы не можете удалять свои сообщения
Вы не можете голосовать в опросах
Вы не можете прикреплять файлы к сообщениям
Вы не можете скачивать файлы