Барселона [2011 г., Футбол, DVDRip]

Ответить на тему
 

Grotesk ®

Стаж: 6 лет 9 месяцев

Сообщений: 4

Барселона Год выпуска: 2011
Вид спорта: Футбол
Участники: Лео Месси и ФК Барселона
Продолжительность: 00:03:24
Описание: 10 лучших голов Лео Месси. Лео Месси один из лучших игроков ФК Барселона и мира. Футбольный клуб «Барсело́на», известен также как «Ба́рса» — каталонский футбольный клуб из одноимённого города, один из лучших в Испании и мире. В 2009 году Барселона установила уникальное достижение, став единственным европейским клубом, который в течение года выиграл все возможные крупные турниры (три национальных — чемпионат, кубок и суперкубок Испании и три международных — Лига чемпионов, Суперкубок УЕФА и Клубный чемпионат мира).
Качество: DVDRip
Формат: AVI
Видео кодек: XviD
Аудио кодек: MPEG Audio
Видео: Xvid 1920x1080 25.00fps
Аудио: MPEG Audio Layer 3 44100Hz stereo 128kbps

Характеристики

General
Format : AVI
Format/Info : Audio Video Interleave
File size : 224 MiB
Duration : 3mn 24s
Overall bit rate : 9 209 Kbps
Writing application : MEncoder SVN-r29352(20090610-gcc4.3.3)
Writing library : MPlayer
Video #0
ID : 0
Format : MPEG-4 Visual
Format profile : [email protected]
Format settings, BVOP : Yes
Format settings, QPel : No
Format settings, GMC : No warppoints
Format settings, Matrix : Default (H.263)
Codec ID : XVID
Codec ID/Hint : XviD
Duration : 3mn 24s
Bit rate : 9 069 Kbps
Width : 1 920 pixels
Height : 1 080 pixels
Display aspect ratio : 16:9
Frame rate : 25.000 fps
Resolution : 24 bits
Colorimetry : 4:2:0
Scan type : Progressive
Bits/(Pixel*Frame) : 0.175
Stream size : 221 MiB (98%)
Writing library : XviD 1.2.1 (UTC 2008-12-04)
Audio #1
ID : 1
Format : MPEG Audio
Format version : Version 1
Format profile : Layer 3
Codec ID : 55
Codec ID/Hint : MP3
Duration : 3mn 23s
Bit rate mode : Constant
Bit rate : 128 Kbps
Channel(s) : 2 channels
Sampling rate : 44.1 KHz
Resolution : 16 bits
Video delay : 40ms
Stream size : 3.11 MiB (1%)
Alignment : Aligned on interleaves
Interleave, duration : 26 ms (0.65 video frame)
Interleave, preload duration : 522 ms
Writing library : LAME3.98

Скриншоты




Последний раз редактировалось: Grotesk (2011-05-07 15:01), всего редактировалось 4 раз(а)

Создавать темы 06-Май-2011 10:02

[Профиль]  [ЛС] 

Сообщения из этой темы были выделены в отдельный топик Флуд из темы: Барселона [2011 г., Футбол, DVDRip]

Pendalf

Создавать темы 09-Мар-2012 19:02

 
Показать сообщения:    
Ответить на тему

Текущее время: 13-Дек 01:04

Часовой пояс: UTC + 5



Вы не можете начинать темы
Вы не можете отвечать на сообщения
Вы не можете редактировать свои сообщения
Вы не можете удалять свои сообщения
Вы не можете голосовать в опросах
Вы не можете прикреплять файлы к сообщениям
Вы не можете скачивать файлы