Трон / Tron (Стивен Лисбергер) [1982 г., фантастика, боевик, триллер, приключения, BDRip]

Ответить на тему
 

pdc ®

Стаж: 6 лет 5 месяцев

Сообщений: 1

Трон / Tron
Год выпуска: 1982
Страна: США, Тайвань
Жанр: фантастика, боевик, триллер, приключения
Продолжительность: 01:31:33
Перевод: Профессиональный (полное дублирование)
Режиссер: Стивен Лисбергер
В ролях: Джефф Бриджес,Брюс Бокслейтнер,Дэвид Уорнер,Синди Морган,Барнард Хьюз,Дэн Шор,Питер Джурасик
Описание: Вам никогда не приходила в голову мысль попасть внутрь компьютерной игры и стать ее участником? До определенного момента Кевин Флинн тоже думал, что это возможно лишь в его воображении.
Но, оказавшись в секретной лаборатории, разрабатывающей компьютерные программы, ему предоставляется возможность увидеть электронный мир изнутри и сразиться в жестокой схватке с самим хозяином виртуальной вселенной.
Доп. информация: Рейтинг IMDB: 6.6/10
Рейтинг Кинопоиск.RU: 7.225
Рейтинг MPAA: PG
Качество: BDRip
Формат: MPEG-TS
Видео кодек: MPEG2
Аудио кодек: AC3
Видео: 1920 x 1080p,( 16x9), 25,000 кадр/сек, AVC [email protected] ~11,2 Мбит/сек, 0.217 bit/pix
Аудио: Русский AC3,192 Кбит/сек,2 канала,48,0 КГц

MediaInfo

Общее
Идентификатор : 1 (0x1)
Полное имя : C:\Documents and Settings\Admin.MICROSOF-68219C\Мои документы\Загрузки\tron.ts
Формат : MPEG-TS
Формат/Информация : Advanced Video Codec
Размер файла : 7,96 Гбайт
Продолжительность : 1 ч. 31 м.
Общий поток : 12,4 Мбит/сек
Максимальный общий битрейт : 35,5 Мбит/сек
Видео
Идентификатор : 4113 (0x1011)
Идентификатор меню : 1 (0x1)
Формат : AVC
Формат/Информация : Advanced Video Codec
Профиль формата : [email protected]
Параметр CABAC формата : Да
Параметр ReFrames формата : 4 кадры
Идентификатор кодека : 27
Продолжительность : 1 ч. 31 м.
Вид битрейта : Переменный
Битрейт : 11,2 Мбит/сек
Максимальный битрейт : 40,0 Мбит/сек
Ширина : 1920 пикс.
Высота : 1080 пикс.
Соотношение сторон : 16:9
Частота кадров : 25,000 кадр/сек
Цветовое пространство : YUV
Подвыборка цветности : 4:2:0
Битовая глубина : 8 бит
Тип развёртки : Чересстрочная
Порядок развёртки : Верхнее поле первое
Бит/(Пиксели*Кадры) : 0.217
Размер потока : 7,19 Гбайт (90%)
Основные цвета : BT.709-5, BT.1361, IEC 61966-2-4, SMPTE RP177
Характеристики трансфера : BT.709-5, BT.1361
Коэффициенты матрицы : BT.709-5, BT.1361, IEC 61966-2-4 709, SMPTE RP177
Аудио #1
Идентификатор : 4352 (0x1100)
Идентификатор меню : 1 (0x1)
Формат : AC-3
Формат/Информация : Audio Coding 3
Расширение режима : CM (complete main)
Идентификатор кодека : 129
Продолжительность : 1 ч. 31 м.
Вид битрейта : Постоянный
Битрейт : 192 Кбит/сек
Канал(ы) : 2 канала(ов)
Расположение каналов : Front: L R
Частота : 48,0 КГц
Битовая глубина : 16 бит
Метод сжатия : С потерями
Задержка видео : 16 мс.
Размер потока : 126 Мбайт (2%)
Язык : Russian
Аудио #2
Идентификатор : 4353 (0x1101)
Идентификатор меню : 1 (0x1)
Формат : AC-3
Формат/Информация : Audio Coding 3
Расширение режима : CM (complete main)
Идентификатор кодека : 129
Продолжительность : 1 ч. 31 м.
Вид битрейта : Постоянный
Битрейт : 384 Кбит/сек
Канал(ы) : 6 канала(ов)
Расположение каналов : Front: L C R, Side: L R, LFE
Частота : 48,0 КГц
Битовая глубина : 16 бит
Метод сжатия : С потерями
Задержка видео : 64 мс.
Размер потока : 251 Мбайт (3%)
Язык : English

Скриншоты






Последний раз редактировалось: pdc (2011-05-17 17:32), всего редактировалось 2 раз(а)

Создавать темы 09-Май-2011 14:29

[Профиль]  [ЛС] 

Robox

Стаж: 6 лет 6 месяцев

Сообщений: 72

Симпатии: 1

Вот и Трон начала для тех кто не видел этот фильм откапали все таки )) что все наследия смотрели все чтоли вот эту с перва просмотрите ))

Создавать темы 09-Май-2011 14:43

[Профиль]  [ЛС] 

Homercompany

Стаж: 7 лет 6 месяцев

Сообщений: 234

Симпатии: 7

Вот и Трон начала для тех кто не видел этот фильм откапали все таки )) что все наследия смотрели все чтоли вот эту с перва просмотрите ))
Фильм не такой как современный, всётаки почти 29 лет прошло с его выпуска... Но фильм снят отлично на то время кинопоказа... Как всё начиналось, а так сразу 2ю часть как то смотреть не интересно !!!

Создавать темы 17-Май-2011 17:35

[Профиль]  [ЛС] 

Farhod631

Стаж: 6 лет 7 месяцев

Сообщений: 35

а так сразу 2ю часть как то смотреть не интересно !!!
да уш bl bl

Создавать темы 17-Май-2011 21:34

[Профиль]  [ЛС] 

M.I.X.A

Стаж: 6 лет 8 месяцев

Сообщений: 24

что-то не могу понять Год выпуска: 1982

Создавать темы 18-Май-2011 14:11

[Профиль]  [ЛС] 

\_MOHCTP_/

Стаж: 6 лет 4 месяца

Сообщений: 11

что-то не могу понять Год выпуска: 1982
да фильм староват но стоит взглинуть

Создавать темы 18-Май-2011 15:01

[Профиль]  [ЛС] 

Slevin

Стаж: 6 лет 8 месяцев

Сообщений: 54

Симпатии: 1

Залейте в ДВДрипе!

Создавать темы 19-Май-2011 12:17

[Профиль]  [ЛС] 

nwbigbob

Стаж: 6 лет 11 месяцев

Сообщений: 144

Симпатии: 2

Спасибо большое! Только малость великоват, да и сидеров не видно.... ac

Создавать темы 24-Сен-2011 00:30

[Профиль]  [ЛС] 

vitall

Стаж: 6 лет 4 месяца

Сообщений: 25

ag

Создавать темы 28-Сен-2011 10:10

[Профиль]  [ЛС] 

yuragreek

Стаж: 6 лет 7 месяцев

Сообщений: 125

Симпатии: 3

А СИДЫ то где??? ac

Создавать темы 28-Сен-2011 12:01

[Профиль]  [ЛС] 

Muhammad_rustamov

Стаж: 5 лет 8 месяцев

Сообщений: 42

СИДЫ?

Создавать темы 20-Мар-2012 22:01

[Профиль]  [ЛС] 

janrok

Стаж: 5 лет 6 месяцев

Сообщений: 290

Симпатии: 27

да посмотреть стоит мой брательник думает что трон наследие это просто фильм а не продолжение )))) и к стати

Создавать темы 20-Мар-2012 22:45

[Профиль]  [ЛС] 

Allblacks

Стаж: 5 лет 1 месяц

Сообщений: 4

раздача будет?

Создавать темы 03-Ноя-2012 22:12

[Профиль]  [ЛС] 

M.J.

Стаж: 4 года 1 месяц

Сообщений: 25

Симпатии: 8

---

Создавать темы 03-Май-2015 09:50

[Профиль]  [ЛС] 
Показать сообщения:    
Ответить на тему

Текущее время: 25-Сен 05:58

Часовой пояс: UTC + 5



Вы не можете начинать темы
Вы не можете отвечать на сообщения
Вы не можете редактировать свои сообщения
Вы не можете удалять свои сообщения
Вы не можете голосовать в опросах
Вы не можете прикреплять файлы к сообщениям
Вы не можете скачивать файлы