Mortal Kombat - Видеорецензия (Kanobu) [2011 г., Аркади,Игры, DVDRip]

Ответить на тему
 

goga ®

Стаж: 6 лет 3 месяца

Сообщений: 23

Симпатии: 2

Mortal Kombat - Видеорецензия (Kanobu)
Год выпуска: 2011
Страна: США
Жанр: Аркади,Игры
Продолжительность: 7 мин.
Описание: Новый Mortal Kombat (2011) – тот самый, что был 18 лет назад. Более того, игра убедительно игнорирует даже оригинальную трилогию, не говоря уж о куче остальных, по большей части неудачных продолжений, дополнений и ответвлений. В игре все отлажено и работает как положено, и нет ничего лишнего. Похоже, полку претендентов на главную игру нынешнего года прибыло. Если так пойдет и дальше, в конце года битва за звание лучшего из лучших действительно окажется смертельной.
Качество: DVDRip
Формат: AVI
Видео кодек: DivX
Аудио кодек: MP3
Видео: ID : 2 Format : AVC Format/Info : Advanced Video Codec Format profile : [email protected] Format settings, CABAC : Yes Format settings, ReFrames : 2 frames Codec ID : avc1 Codec ID/Info : Advanced Video Coding Duration : 6mn 59s Bit rate mode : Variable Bit rate : 698 Kbps Width : 640 pixels Height : 360 pixels Display aspect ratio : 16:9 Frame rate mode : Variable Frame rate : 29.970 fps Minimum frame rate : 12.660 fps Maximum frame rate : 30.299 fps Standard : NTSC Color space : YUV Chroma subsampling : 4:2:0 Bit depth : 8 bits Scan type : Progressive Bits/(Pixel*Frame) : 0.101 Stream size : 34.9 MiB (85%)
Аудио: ID : 1 Format : AAC Format/Info : Advanced Audio Codec Format version : Version 4 Format profile : LC Codec ID : 40 Duration : 6mn 59s Bit rate mode : Variable Bit rate : 119 Kbps Maximum bit rate : 190 Kbps Channel(s) : 2 channels Channel positions : Front: L R Sampling rate : 44.1 KHz Stream size : 5.95 MiB (14%)

Скриншоты






Последний раз редактировалось: goga (2011-05-10 17:31), всего редактировалось 1 раз

Создавать темы 10-Май-2011 16:31

[Профиль]  [ЛС] 

seryoga-shadow

Стаж: 6 лет 6 месяцев

Сообщений: 78

Симпатии: 2

Отличное видео. На PC выйдет или как?

Создавать темы 11-Май-2011 22:31

[Профиль]  [ЛС] 

RU$@

Стаж: 7 лет 2 месяца

Сообщений: 40

Отличное видео. На PC выйдет или как?
игра уже вышла но не на пк

Создавать темы 07-Июн-2011 22:46

[Профиль]  [ЛС] 

Mrblack

Стаж: 6 лет 3 месяца

Сообщений: 247

Симпатии: 52

Отличное видео cпс

Создавать темы 16-Июл-2011 20:15

[Профиль]  [ЛС] 

Millenium

Стаж: 6 лет 3 месяца

Сообщений: 159

Симпатии: 3

Кто знает где найти саундтрек в самом конце рок версия.

Создавать темы 17-Июл-2011 16:09

[Профиль]  [ЛС] 

sphinx_kill

Стаж: 5 лет 7 месяцев

Сообщений: 18

Симпатии: 1

кто знает, где найти сайнтрек из начала ролика или где скачать кинте сылку плз

Создавать темы 12-Июл-2012 20:16

[Профиль]  [ЛС] 

Sarvar_mr08

Стаж: 4 года 1 месяц

Сообщений: 3

Игру в виде образа дайте (img, iso, ...) пожайлуйста у меня ест эмулятор который даёт возможность играт игры плай статион на комп

Создавать темы 27-Июн-2013 18:32

[Профиль]  [ЛС] 

mathcore

Стаж: 4 года 11 месяцев

Сообщений: 5

Симпатии: 1

Sarvar_mr08, да она на пк выйдет 3 июля.

Создавать темы 28-Июн-2013 21:19

[Профиль]  [ЛС] 
Показать сообщения:    
Ответить на тему

Текущее время: 22-Авг 00:50

Часовой пояс: UTC + 5



Вы не можете начинать темы
Вы не можете отвечать на сообщения
Вы не можете редактировать свои сообщения
Вы не можете удалять свои сообщения
Вы не можете голосовать в опросах
Вы не можете прикреплять файлы к сообщениям
Вы не можете скачивать файлы