Тетрадь Смерти / Death Note (Араки Тэцуро) [TV][37 из 37][RAW][RUS, JAP][2006 г., мистика, триллер, детектив, DVDRip]

Страницы :  1, 2, 3, 4, 5, 6, 7  След.

Ответить на тему
 

Djanik ®

Стаж: 8 лет 9 месяцев

Сообщений: 55

Симпатии: 5

Тетрадь Смерти / Death Note
Год выпуска: 2006
Страна: Япония
Жанр: мистика, триллер, детектив
Продолжительность: Тип: ТВ (37 эп)
Перевод: Профессиональный (полное дублирование озвучка от канала 2х2)
+ Jap (Original)

Режиссер: Араки Тэцуро
Студия:
Средний балл: 9.0 из 10
Место в рейтинге: 37 из 1924
Проголосовало: 7620 чел.
http://www.world-art.ru/
В ролях:
Актёры-сэйю, озвучивавшие героев аниме (слева направо): Мамору Мияно (в аниме - Лайт Ягами), Харука Кудо (в аниме - Саю Ягами), Ая Хирано (в аниме - Миса Аманэ) и Каппэй Ямагути (в аниме - Эл).

Описание: У старшеклассника Лайта Ягами в жизни есть всё: успехи в школе, популярность среди сверстниц, замечательные родители, блестящее будущее. Возможно, поэтому так тяжело ему жить в мире, полном несправедливости, и осознавать, что никакие законы не способны исправить людей – и очистить мир от зла. Но однажды юноша находит странную чёрную тетрадку и знакомится с её владельцем – синигами Рюуком.
Возможности «Тетради смерти» позволяют Лайту стать Кирой – загадочным и всеведущим убийцей, карающим преступников. Более того – изучив правила использования тетради, юноша успешно избегает ловушек, расставленных спецслужбами. Никто не может его поймать.
У таинственного «L» никогда не было поражений: сохраняя инкогнито, он успешно распутывал самые трудные дела и помогал полиции. Появление Киры стало вызовом для его экстраординарных способностей.
Итак, два весьма умных и одарённых молодых человека сталкиваются в смертельном противостоянии, и теперь каждая мелочь, каждая случайность может склонить весы на ту или другую сторону. На стороне Лайта – могущественная «Тетрадь Смерти». У «L» есть поддержка полиции и опыт. И никто не собирается проигрывать или сдаваться…
Качество: DVDRip
Формат: AVI
Видео кодек: XviD
Аудио кодек: Dolby AC3
Видео: 720x400 23.98fps 1389kbps
Аудио: 48000Hz stereo 192kbps
Аудио: 48000Hz stereo 256kbps

Полная инфа о файле

General
Complete name : Tetrad.smerti.01.by.CGInfo.avi
Format : AVI
Format/Info : Audio Video Interleave
File size : 301 MiB
Duration : 22mn 45s
Overall bit rate : 1 852 Kbps
Writing application : VirtualDubMod 1.5.10.2 (build 2542/release)
Writing library : VirtualDubMod build 2542/release
Video
ID : 0
Format : MPEG-4 Visual
Format profile : Advanced [email protected]5
Format settings, BVOP : Yes
Format settings, QPel : No
Format settings, GMC : No warppoints
Format settings, Matrix : Default (MPEG)
Muxing mode : Packed bitstream
Codec ID : XVID
Codec ID/Hint : XviD
Duration : 22mn 45s
Bit rate : 1 390 Kbps
Width : 720 pixels
Height : 400 pixels
Display aspect ratio : 16:9
Frame rate : 23.976 fps
Resolution : 8 bits
Colorimetry : 4:2:0
Scan type : Progressive
Bits/(Pixel*Frame) : 0.201
Stream size : 226 MiB (75%)
Writing library : XviD 1.2.1 (UTC 2008-12-04)
Audio #1
ID : 1
Format : AC-3
Format/Info : Audio Coding 3
Codec ID : 2000
Duration : 22mn 45s
Bit rate mode : Constant
Bit rate : 192 Kbps
Channel(s) : 2 channels
Channel positions : L R
Sampling rate : 48.0 KHz
Stream size : 31.2 MiB (10%)
Alignment : Split accross interleaves
Interleave, duration : 42 ms (1.00 video frame)
Interleave, preload duration : 500 ms
Audio #2
ID : 2
Format : AC-3
Format/Info : Audio Coding 3
Codec ID : 2000
Duration : 22mn 45s
Bit rate mode : Constant
Bit rate : 256 Kbps
Channel(s) : 2 channels
Channel positions : L R
Sampling rate : 48.0 KHz
Stream size : 41.7 MiB (14%)
Alignment : Split accross interleaves
Interleave, duration : 42 ms (1.00 video frame)
Interleave, preload duration : 500 ms

Скриншоты:















Последний раз редактировалось: Djanik (2012-10-18 22:12), всего редактировалось 12 раз(а)

Создавать темы 13-Май-2011 19:50

[Профиль]  [ЛС] 

Djanik ®

Стаж: 8 лет 9 месяцев

Сообщений: 55

Симпатии: 5

zd кто-то просил.......дайте медальку плизз ak

Создавать темы 13-Май-2011 19:53

[Профиль]  [ЛС] 

DjDiLiSoFT

Стаж: 8 лет 3 месяца

Сообщений: 135

Djanik спс ! стан на раздачу уже )

Создавать темы 13-Май-2011 21:34

[Профиль]  [ЛС] 

Akatsuki

Стаж: 6 лет 8 месяцев

Сообщений: 23

Спасибо,b]Djanik Помогите теперь скачать ab ay

Создавать темы 13-Май-2011 23:05

[Профиль]  [ЛС] 

Djanik ®

Стаж: 8 лет 9 месяцев

Сообщений: 55

Симпатии: 5

zd скорость на тас икс пока у меня 256, после 16 будет вроде 512

Создавать темы 14-Май-2011 07:54

[Профиль]  [ЛС] 

[email protected]

Стаж: 6 лет 9 месяцев

Сообщений: 138

Симпатии: 10

Аниме Супер !!!!! Я сам большой его фан !!! Всем советую !!! ay

Создавать темы 14-Май-2011 12:47

[Профиль]  [ЛС] 

Djanik ®

Стаж: 8 лет 9 месяцев

Сообщений: 55

Симпатии: 5

ac модеры, проверит кто-нибудь тему уже??

Создавать темы 14-Май-2011 13:27

[Профиль]  [ЛС] 

odamcha

Стаж: 7 лет 6 месяцев

Сообщений: 137

Симпатии: 13

Djanik Исправьте шапку согласно правилам

Создавать темы 14-Май-2011 19:12

[Профиль]  [ЛС] 

Djanik ®

Стаж: 8 лет 9 месяцев

Сообщений: 55

Симпатии: 5

ag да в этой шапке тоже самое же написано
и что такое: [тип-№] чё-то не врублюсь


Последний раз редактировалось: Djanik (2011-05-14 20:25), всего редактировалось 1 раз

Создавать темы 14-Май-2011 20:25

[Профиль]  [ЛС] 

odamcha

Стаж: 7 лет 6 месяцев

Сообщений: 137

Симпатии: 13

Djanik Исправил, в дольнейшем используйте его в качестве шаблона zd

Создавать темы 14-Май-2011 21:16

[Профиль]  [ЛС] 

Djanik ®

Стаж: 8 лет 9 месяцев

Сообщений: 55

Симпатии: 5

zd так в шаблоне написано [тип №], что это такое ты мне объясни

Создавать темы 15-Май-2011 06:26

[Профиль]  [ЛС] 

Akatsuki

Стаж: 6 лет 8 месяцев

Сообщений: 23

Moдераторы, сделайте раздачу хотя бы серебряной, пожалуйста. Было бы здорово! Спасибо

Создавать темы 15-Май-2011 13:52

[Профиль]  [ЛС] 

odamcha

Стаж: 7 лет 6 месяцев

Сообщений: 137

Симпатии: 13

что скажет автор раздачи? ab

Создавать темы 15-Май-2011 16:11

[Профиль]  [ЛС] 

slap_nuts

Стаж: 7 лет 4 месяца

Сообщений: 85

ооо неужели озвучка от канала 2х2

Создавать темы 15-Май-2011 16:59

[Профиль]  [ЛС] 

Nano95

Стаж: 7 лет 4 месяца

Сообщений: 139

Симпатии: 1

дааа сегодня досмотрел серьял не думал что все так кончется жалко конешно

Создавать темы 15-Май-2011 17:01

[Профиль]  [ЛС] 
Показать сообщения:    
Ответить на тему

Текущее время: 22-Окт 18:40

Часовой пояс: UTC + 5



Вы не можете начинать темы
Вы не можете отвечать на сообщения
Вы не можете редактировать свои сообщения
Вы не можете удалять свои сообщения
Вы не можете голосовать в опросах
Вы не можете прикреплять файлы к сообщениям
Вы не можете скачивать файлы