Запредельное оружие / Ultimate Weapons (Производство: Discovery Channel) [2009 г., Документальный, SATRip]

Ответить на тему
 

ikbol77 ®

Стаж: 6 лет 11 месяцев

Сообщений: 9

Запредельное оружие / Ultimate Weapons
Год выпуска: 2009
Жанр: Документальный
Продолжительность: ~ 45 минут на серию
Производство: Discovery Channel
Описание: Сериал «Запредельное оружие» — это новая динамичная шести серийная (5 серий) программа о самых последних разработках в области современного вооружения. Вы увидите лучшие снайперские винтовки, танки, солдат-роботов и системы ближнего боя. Программа подробно рассказывает обо всех видах оружия — от страшного оружия поражения, предназначенного эффективно подавлять противника самыми разрушительными методами, до автономных и малозаметных автоматизированных «разумных» систем, которые способны наносить точные удары и поражать цели. Ни одна деталь не останется без внимания. По ходу программы вы увидите, какое оружие является самым запредельным и получит звание «победителя».
Доп. информация: Перевод: Одноголосый (Профессиональный)
Качество: SATRip
Видео кодек: H.26x
Аудио кодек: MPEG Audio
Видео: Flash Video 1 720x480 [Video]
Аудио: MPEG Audio Layer 3 44100Hz stereo 32kbps [Audio]

Скриншоты










Медиаинфо:
Format : Flash Video
File size : 265 MiB
Duration : 43mn 57s
Overall bit rate : 844 Kbps
Video
Format : H.263
Codec ID : 2
Codec ID/Hint : Sorenson
Duration : 43mn 57s
Bit rate : 781 Kbps
Width : 720 pixels
Height : 480 pixels
Display aspect ratio : 3:2
Frame rate mode : Constant
Frame rate : 29.970 fps
Standard : NTSC
Bit depth : 8 bits
Compression mode : Lossy
Bits/(Pixel*Frame) : 0.075
Stream size : 246 MiB (93%)
Audio
Format : MPEG Audio
Format version : Version 1
Format profile : Layer 3
Mode : Joint stereo
Codec ID : 2
Codec ID/Hint : MP3
Duration : 43mn 57s
Bit rate mode : Variable
Bit rate : 31.1 Kbps
Channel(s) : 2 channels
Sampling rate : 44.1 KHz
Compression mode : Lossy
Stream size : 9.78 MiB (4%)
Writing library : LAME3.98

Создавать темы 16-Май-2011 00:15

[Профиль]  [ЛС] 

boy200007

Стаж: 6 лет 9 месяцев

Сообщений: 74

а куда пропал 3ая серия ? ag

Создавать темы 16-Май-2011 06:55

[Профиль]  [ЛС] 

ikbol77 ®

Стаж: 6 лет 11 месяцев

Сообщений: 9

Просто у меня нет этой серии...

Создавать темы 16-Май-2011 08:13

[Профиль]  [ЛС] 

asTRon

Стаж: 6 лет 3 месяца

Сообщений: 1

ikbol77
скорость по больще дай на раздачу Ultimate Weapons

Создавать темы 22-Май-2011 16:01

[Профиль]  [ЛС] 

Sinema_uz

Стаж: 6 лет 7 месяцев

Сообщений: 303

Симпатии: 4

если други серии будут собши!!!!!!

Создавать темы 22-Май-2011 16:06

[Профиль]  [ЛС] 

SL

Стаж: 6 лет 4 месяца

Сообщений: 22

скорости дайте

Создавать темы 22-Май-2011 18:01

[Профиль]  [ЛС] 

Abbos

Стаж: 6 лет 9 месяцев

Сообщений: 15

дайте скорости плииз? зачем тогда на раздаче седите

Создавать темы 18-Фев-2012 16:32

[Профиль]  [ЛС] 
Показать сообщения:    
Ответить на тему

Текущее время: 24-Авг 10:01

Часовой пояс: UTC + 5



Вы не можете начинать темы
Вы не можете отвечать на сообщения
Вы не можете редактировать свои сообщения
Вы не можете удалять свои сообщения
Вы не можете голосовать в опросах
Вы не можете прикреплять файлы к сообщениям
Вы не можете скачивать файлы