Я – Четвертый / I Am Number Four (Ди Джей Карузо) [2011 г., Фантастика, боевик, HDRip] :: ЛИЦЕНЗИЯ!

Страницы :  1, 2, 3, 4, 5, 6, 7  След.

Ответить на тему
 

Mixer City ®

Стаж: 6 лет 11 месяцев

Сообщений: 754

Симпатии: 63

Я – Четвертый / I Am Number Four (2011) :: ЛИЦЕНЗИЯ!--«Трое уже мертвы... Он – четвертый...»--
Год выпуска :: 2011
Страна :: США
Жанр :: Фантастика, боевик, триллер
Продолжительность :: 109 мин
Перевод :: Профессиональный (полное дублирование) :: ЛИЦЕНЗИЯ!
Бюджет :: $60 000 000--Режиссер :: Ди Джей Карузо
В ролях :: Дианна Агрон, Тимоти Олифант, Алекс Петтифер, Кевин Дюран, Тереза Палмер, Джэйк Абель, Бо Мирчофф, Каллэн МакОлиффи, Эмили Уикершем, Моника Чишсон и др.--Описание :: Обычный с виду подросток Джон Смит на самом деле — один из последних выживших обитателей далекой планеты. Джон вынужден скрываться от страшных врагов, посланных уничтожить его, ему приходится менять имена, постоянно переезжая с места на место со своим опекуном Генри. В разных городках и в разных школах Джон всегда был новичком без прошлого, но однажды он нашел место, которое смог назвать домом: в маленьком городке в Огайо Джон встретил свою любовь. Теперь ему предстоит открыть в себе уникальные способности, сразиться с древними и страшными врагами своего народа и осознать свое удивительное предназначение.--Рейтинги :: IMDB: 6.20 (21,552 голосов), КиноПоиск: 6.570 (9,490 голосов)--Качество :: HDRip
Формат :: AVI
Видео кодек :: XviD
Аудио кодек :: AC3
Видео :: 720x384 , 1394 kbps
Аудио :: 6 ch , 384 kbps--Не забываем нажимать :: Спасибо, если не трудно... и можно +

Media Info

General
Complete name : I.Am.Number.Four.2011.HDRip.avi
Format : AVI
Format/Info : Audio Video Interleave
File size : 1.37 GiB
Duration : 1h 49mn
Overall bit rate : 1 788 Kbps
Writing application : VirtualDubMod 1.5.4.1 (build 2178/release)
Writing library : VirtualDubMod build 2178/release
Video
ID : 0
Format : MPEG-4 Visual
Format profile : Advanced [email protected]
Format settings, BVOP : 2
Format settings, QPel : No
Format settings, GMC : No warppoints
Format settings, Matrix : Custom
Codec ID : XVID
Codec ID/Hint : XviD
Duration : 1h 49mn
Bit rate : 1 394 Kbps
Width : 720 pixels
Height : 384 pixels
Display aspect ratio : 1.875
Frame rate : 23.976 fps
Color space : YUV
Chroma subsampling : 4:2:0
Bit depth : 8 bits
Scan type : Progressive
Compression mode : Lossy
Bits/(Pixel*Frame) : 0.210
Stream size : 1.07 GiB (78%)
Writing library : XviD 58
Audio
ID : 1
Format : AC-3
Format/Info : Audio Coding 3
Mode extension : CM (complete main)
Codec ID : 2000
Duration : 1h 49mn
Bit rate mode : Constant
Bit rate : 384 Kbps
Channel(s) : 6 channels
Channel positions : Front: L C R, Side: L R, LFE
Sampling rate : 48.0 KHz
Bit depth : 16 bits
Compression mode : Lossy
Stream size : 301 MiB (21%)
Alignment : Split accross interleaves

Скриншоты (7 штук)









Последний раз редактировалось: Mixer City (2011-08-04 08:42), всего редактировалось 25 раз(а)

Создавать темы 19-Май-2011 04:32

[Профиль]  [ЛС] 

Mixer City ®

Стаж: 6 лет 11 месяцев

Сообщений: 754

Симпатии: 63

Раздаю на полной скорости ...


Последний раз редактировалось: Mixer City (2011-05-19 10:02), всего редактировалось 1 раз

Создавать темы 19-Май-2011 05:01

[Профиль]  [ЛС] 

swagger

Стаж: 6 лет 10 месяцев

Сообщений: 16

Спасибо хороший релиз.

Создавать темы 19-Май-2011 06:16

[Профиль]  [ЛС] 

mansurjon

Стаж: 7 лет 7 месяцев

Сообщений: 103

Симпатии: 3

помогаю раздаче

Создавать темы 19-Май-2011 07:45

[Профиль]  [ЛС] 

M.I.X.A

Стаж: 6 лет 11 месяцев

Сообщений: 24

ее ппц блин какойто баран мне сказал что лецензиенный релиз будет 24мая !!!

Создавать темы 19-Май-2011 07:47

[Профиль]  [ЛС] 

Саша2508

Стаж: 7 лет 4 месяца

Сообщений: 7

mixerusha
Спосибо az az

Создавать темы 19-Май-2011 08:04

[Профиль]  [ЛС] 

Зафар

Стаж: 7 лет 5 месяцев

Сообщений: 3

Спасибо друг!! ab

Создавать темы 19-Май-2011 09:17

[Профиль]  [ЛС] 

Ilhom_one

Стаж: 7 лет 3 месяца

Сообщений: 29

ab

Создавать темы 19-Май-2011 09:41

[Профиль]  [ЛС] 

Voffka

Стаж: 6 лет 8 месяцев

Сообщений: 16

Ну шикарно )) прям неделя подарков ))) Область тьмы - лицензия, Я - четвертый - лицензия ay Для полного списка еще бы Исходный код, Запрещенный прием и Тор ab


Последний раз редактировалось: Voffka (2011-05-19 09:45), всего редактировалось 1 раз

Создавать темы 19-Май-2011 09:45

[Профиль]  [ЛС] 

60606

Стаж: 6 лет 11 месяцев

Сообщений: 1

ага.... пасиб за раздачу...

Создавать темы 19-Май-2011 09:58

[Профиль]  [ЛС] 

Mixer City ®

Стаж: 6 лет 11 месяцев

Сообщений: 754

Симпатии: 63

Voffka
Всё впереди ...


Последний раз редактировалось: Mixer City (2011-05-19 10:01), всего редактировалось 1 раз

Создавать темы 19-Май-2011 10:01

[Профиль]  [ЛС] 

bumblebee

Стаж: 7 лет 4 месяца

Сообщений: 97

Симпатии: 1

Фильм просто супер,СОВЕТУЮ посмотреть... ay

Создавать темы 19-Май-2011 10:13

[Профиль]  [ЛС] 

Mixer City ®

Стаж: 6 лет 11 месяцев

Сообщений: 754

Симпатии: 63

Dilmurod-N
У меня раздаёт 155 Кб/с

Создавать темы 19-Май-2011 11:15

[Профиль]  [ЛС] 

Donis

Стаж: 8 лет 3 месяца

Сообщений: 56

mixerusha
Звуковую дорожку выложить сможешЬ?

Создавать темы 19-Май-2011 11:16

[Профиль]  [ЛС] 

artem2010

Стаж: 7 лет 1 месяц

Сообщений: 89

Симпатии: 7

я уже день качаю
как это ты так день качаешь если сам фильм зарегистрирован 6 часов ag ag ag

Создавать темы 19-Май-2011 11:17

[Профиль]  [ЛС] 
Показать сообщения:    
Ответить на тему

Текущее время: 18-Дек 23:36

Часовой пояс: UTC + 5



Вы не можете начинать темы
Вы не можете отвечать на сообщения
Вы не можете редактировать свои сообщения
Вы не можете удалять свои сообщения
Вы не можете голосовать в опросах
Вы не можете прикреплять файлы к сообщениям
Вы не можете скачивать файлы