Лучшие куски Comedy Club: Харламов и Батрудинов [2008 г., Юмористическая программа, DVDRip]

Ответить на тему
 

Mansurbek84 ®

Стаж: 6 лет 11 месяцев

Сообщений: 80

Симпатии: 8

Лучшие куски Comedy Club: Харламов и Батрудинов
Год выпуска: 2008
Страна: Россия
Жанр: Юмористическая программа
Продолжительность: 1:14:55
Описание: Они выходят на небольшой пятачок сцены прямо из зрительного зала, по пути перебрасываясь словечками с окружающими, делая комплименты, прося прикурить. Они не признают никаких авторитетов, приличий и правил. Они запросто могут осмеять любую звездную персону - даже если она сидит в зале. Они - часть своей аудитории, они живут такими же интересами. Их цель - завести публику, а не выступить, отыграв заученную программу. Реклама, футбол, секс, офисные интриги, начальники и подчиненные, новости, светская жизнь, отношения - все это просто предмет для шуток для ребят из "Комеди Клаба". Осторожно, они опасны, когда берут в руки микрофон...

Качество: DVDRip
Формат: AVI
Видео кодек: XviD
Аудио кодек: AC3
Видео: 562 x 432 (4:3), 25.000 fps, ~ 2364 Kbps, 0.390 bit/pix
Аудио: AC3, 48.0 Khz, 224 kbps, 5 channels
Доп.инфо: Там где то 15 минут повтор имеется

Мед.инфо

General
Complete name : e:\Film\Comedy\The.Best.Of.Harlamov.and.Batrutdinov1.avi
Format : AVI
Format/Info : Audio Video Interleave
File size : 1.36 GiB
Duration : 1h 14mn
Overall bit rate : 2 598 Kbps
Writing application : VirtualDubMod 1.5.4.1 (build 2178/release)
Writing library : VirtualDub build 30009/release
Video #0
ID : 0
Format : MPEG-4 Visual
Format profile : [email protected]
Format settings, BVOP : Yes
Format settings, QPel : No
Format settings, GMC : No warppoints
Format settings, Matrix : Custom
Codec ID : XVID
Codec ID/Hint : XviD
Duration : 1h 14mn
Bit rate : 2 364 Kbps
Width : 562 pixels
Height : 432 pixels
Display aspect ratio : 4:3
Frame rate : 25.000 fps
Resolution : 24 bits
Colorimetry : 4:2:0
Scan type : Progressive
Bits/(Pixel*Frame) : 0.390
Stream size : 1.24 GiB (91%)
Writing library : XviD 1.2.0.dev47 (UTC 2006-11-01)
Audio #1
ID : 1
Format : AC-3
Format/Info : Audio Coding 3
Codec ID : 2000
Duration : 1h 14mn
Bit rate mode : Constant
Bit rate : 224 Kbps
Channel(s) : 5 channels
Channel positions : Front: L C R, Surround: L R
Sampling rate : 48.0 KHz
Stream size : 120 MiB (9%)
Alignment : Split accross interleaves
Interleave, duration : 40 ms (1.00 video frame)
Interleave, preload duration : 500 ms

Скриншоты





Последний раз редактировалось: Mansurbek84 (2011-05-19 16:37), всего редактировалось 1 раз

Создавать темы 19-Май-2011 16:34

[Профиль]  [ЛС] 

Mansurbek84 ®

Стаж: 6 лет 11 месяцев

Сообщений: 80

Симпатии: 8

ashot получи и распишись. Потом другую выложу

Создавать темы 19-Май-2011 16:38

[Профиль]  [ЛС] 

ashot

Стаж: 6 лет 9 месяцев

Сообщений: 31

Симпатии: 1

Mansurbek84
спс +1

Создавать темы 19-Май-2011 18:52

[Профиль]  [ЛС] 

501205

Стаж: 6 лет 6 месяцев

Сообщений: 2

дайте скорость плиззз не сваливайте с раздачи

Создавать темы 20-Май-2011 01:26

[Профиль]  [ЛС] 

ashot

Стаж: 6 лет 9 месяцев

Сообщений: 31

Симпатии: 1

а кто знает почему когда я вхожу в видео у меня комп перезагружается?

Создавать темы 20-Май-2011 18:01

[Профиль]  [ЛС] 

slap_nuts

Стаж: 7 лет 4 месяца

Сообщений: 85

Mansurbek84 а есть у тебя самые первые выпуски Камеди?

Создавать темы 22-Май-2011 17:28

[Профиль]  [ЛС] 

ashot

Стаж: 6 лет 9 месяцев

Сообщений: 31

Симпатии: 1

slap_nuts
во мне они тоже нужны, мне обещали выложить но я не могу вспомнить кто


Последний раз редактировалось: ashot (2011-05-22 17:43), всего редактировалось 1 раз

Создавать темы 22-Май-2011 17:43

[Профиль]  [ЛС] 

Mansurbek84 ®

Стаж: 6 лет 11 месяцев

Сообщений: 80

Симпатии: 8

slap_nuts Нет. Но можно их найти. Попробуем. ashot надеюсь это не я ag
Добавлено спустя 1 час 37 минут 13 секунд:
Нашел выпуски 1-200 (2005-2010) весит 91,5 гб ac


Последний раз редактировалось: Mansurbek84 (2011-05-22 23:37), всего редактировалось 1 раз

Создавать темы 22-Май-2011 23:37

[Профиль]  [ЛС] 

shavkat8999

Стаж: 6 лет 8 месяцев

Сообщений: 108

Симпатии: 5

добавьте скорости пожалуста bc bc bc bc bc :


Последний раз редактировалось: shavkat8999 (2011-07-18 16:06), всего редактировалось 1 раз

Создавать темы 18-Июл-2011 09:03

[Профиль]  [ЛС] 

vitall

Стаж: 6 лет 5 месяцев

Сообщений: 25

bq

Создавать темы 28-Сен-2011 10:12

[Профиль]  [ЛС] 

Premer

Стаж: 6 лет 5 месяцев

Сообщений: 27

+1


Последний раз редактировалось: Premer (2011-09-29 22:19), всего редактировалось 1 раз

Создавать темы 29-Сен-2011 22:19

[Профиль]  [ЛС] 

112

Стаж: 6 лет 11 месяцев

Сообщений: 24

Поддайте ходу!ходу!!!!!

Создавать темы 14-Сен-2013 15:46

[Профиль]  [ЛС] 

Platinum

Стаж: 5 лет 8 месяцев

Сообщений: 34

slap_nuts Нет. Но можно их найти. Попробуем. ashot надеюсь это не я ag
Добавлено спустя 1 час 37 минут 13 секунд:
Нашел выпуски 1-200 (2005-2010) весит 91,5 гб ac
Выкладывайте! думаю многие будут благодарны!

Создавать темы 24-Сен-2013 23:43

[Профиль]  [ЛС] 
Показать сообщения:    
Ответить на тему

Текущее время: 17-Окт 12:35

Часовой пояс: UTC + 5



Вы не можете начинать темы
Вы не можете отвечать на сообщения
Вы не можете редактировать свои сообщения
Вы не можете удалять свои сообщения
Вы не можете голосовать в опросах
Вы не можете прикреплять файлы к сообщениям
Вы не можете скачивать файлы