Лучшие куски Comedy Club. Александр А. Ревва [Развлекательно-Юмористическая программа, TVRip]

Ответить на тему
 

Mansurbek84 ®

Стаж: 6 лет 10 месяцев

Сообщений: 80

Симпатии: 8

Лучшие куски Comedy Club. Александр А. Ревва

Год выпуска: неизвестно
Страна: Россия
Жанр: Развлекательно-Юмористическая программа
Продолжительность: 43:59
Описание: Родился в очереди за пенсией. В детстве был послушным мальчиком, в юности послушным девочкой. Получил высшее техническое образование, защитил диссертацию, работал над изобретением лазерного перфолоскопа, свихнулся, начал показывать миниатюры про бабушек, попал в Comedy Club, прославился. Разносторонний человек: помимо юмора любит спать, есть, лежать и сидеть. Имеет домашнее животное - камень, зовут Сергей. В общем большой человек, который прославился тем, что сказал Стивену Спилбергу: "Фак ю, Спилберг!" :)
Качество: TVRip
Формат: AVI
Видео кодек: XviD
Аудио кодек: MPEG Audio
Видео: 608х480 (5:4), 25.000 fps, ~973 Kbps, 0.133 bit/pix
Аудио: Mpeg Audio, 48.Khz, 2 channels, 128 Kbps
Доп.инфо: укороченная версия

Мед.инфо

General
Complete name : E:\Film\Comedy\reva_new.avi
Format : AVI
Format/Info : Audio Video Interleave
File size : 349 MiB
Duration : 43mn 59s
Overall bit rate : 1 111 Kbps
Writing application : VirtualDubMod 1.5.10.2 (build 2542/release)
Writing library : VirtualDubMod build 2542/release
Video #0
ID : 0
Format : MPEG-4 Visual
Format profile : [email protected]
Format settings, BVOP : Yes
Format settings, QPel : No
Format settings, GMC : No warppoints
Format settings, Matrix : Default (H.263)
Muxing mode : Packed bitstream
Codec ID : XVID
Codec ID/Hint : XviD
Duration : 43mn 59s
Bit rate : 973 Kbps
Width : 608 pixels
Height : 480 pixels
Display aspect ratio : 5:4
Frame rate : 25.000 fps
Resolution : 24 bits
Colorimetry : 4:2:0
Scan type : Progressive
Bits/(Pixel*Frame) : 0.133
Stream size : 306 MiB (88%)
Writing library : XviD 1.1.2 (UTC 2006-11-01)
Audio #1
ID : 1
Format : MPEG Audio
Format version : Version 1
Format profile : Layer 3
Codec ID : 55
Codec ID/Hint : MP3
Duration : 43mn 58s
Bit rate mode : Constant
Bit rate : 128 Kbps
Channel(s) : 2 channels
Sampling rate : 48.0 KHz
Resolution : 16 bits
Stream size : 40.3 MiB (12%)
Alignment : Split accross interleaves
Interleave, duration : 40 ms (1.00 video frame)
Interleave, preload duration : 500 ms
Writing library : LAME3.98

Скриншоты





Последний раз редактировалось: Mansurbek84 (2011-05-21 21:01), всего редактировалось 1 раз

Создавать темы 21-Май-2011 20:59

[Профиль]  [ЛС] 

Mansurbek84 ®

Стаж: 6 лет 10 месяцев

Сообщений: 80

Симпатии: 8

Если будет Full version тоже выложу.

Создавать темы 21-Май-2011 21:04

[Профиль]  [ЛС] 

General

Стаж: 6 лет 5 месяцев

Сообщений: 4

Спс Mansurbek84

Создавать темы 21-Май-2011 21:34

[Профиль]  [ЛС] 

ashot

Стаж: 6 лет 9 месяцев

Сообщений: 31

Симпатии: 1

спс

Создавать темы 22-Май-2011 07:32

[Профиль]  [ЛС] 

Kavkaznutiy Lakec

Стаж: 5 лет 5 месяцев

Сообщений: 28

скорости не хватает ! будьте добры дайте скорости !!!

Создавать темы 05-Ноя-2012 22:57

[Профиль]  [ЛС] 

MarcOs

Стаж: 5 лет 8 месяцев

Сообщений: 10

Дайте скорости(((

Создавать темы 10-Ноя-2012 10:06

[Профиль]  [ЛС] 

likalika

Стаж: 4 года 8 месяцев

Сообщений: 7

Симпатии: 1

не качает((( краснота да и только

Создавать темы 08-Мар-2013 21:00

[Профиль]  [ЛС] 

kolyanex

Стаж: 4 года 8 месяцев

Сообщений: 13

Симпатии: 6

дайте скачать пожалуйста!

Создавать темы 26-Фев-2014 08:28

[Профиль]  [ЛС] 

Mansurbek84 ®

Стаж: 6 лет 10 месяцев

Сообщений: 80

Симпатии: 8

Я был бы рад помочь личерам но увы, файл давно удалил.

Создавать темы 07-Мар-2014 13:00

[Профиль]  [ЛС] 
Показать сообщения:    
Ответить на тему

Текущее время: 25-Сен 14:44

Часовой пояс: UTC + 5



Вы не можете начинать темы
Вы не можете отвечать на сообщения
Вы не можете редактировать свои сообщения
Вы не можете удалять свои сообщения
Вы не можете голосовать в опросах
Вы не можете прикреплять файлы к сообщениям
Вы не можете скачивать файлы