Небо видело всё (Константин Шелепов) [2011 г., Короткометражка, Фантастика, Боевик, Драма, HDRip]

Ответить на тему
 

Mr_ALo ®

Стаж: 7 лет 9 месяцев

Сообщений: 367

Симпатии: 20

Небо видело всё Год выпуска: 2011
Жанр: Короткометражка, Фантастика, Боевик, Драма
Продолжительность: 00:39:20
Перевод: Не требуется
Режиссер: Константин Шелепов
В ролях: Вячеслав Тихонович Гроздов, Александр Филиппов, Мария Зайцева, Петр Желтухин, Юрий Клементьев, Сергей Куницкий, Андрей Хамидулин, Сергей Славин, Ольга Бабенко, Глеб Драчёв, Игорь Шелепов, Александр Смирнов, Виталий Логинов, Евгений Лучинскас, Константин Сироткин и др.
Описание: Шел 2020 год, после войны, мир разбился на множество осколков разделяя семьи, друзей, близких и даже врагов. Крупные города перестали существовать, скоро отголоски войны придут и в наш маленький город.
 Качество: HDRip
Формат: MP4
Видео: AVC 1280х720 25.000 fps, 1 853-9 033 Kbps
Аудио: AAC 44.1 KHz 2 channels, 158-198 Kbps

MediaInfo

General
Complete name : E:\Films\Небо видело всё 2011 HDRip.mp4
Format : MPEG-4
Format profile : Base Media
Codec ID : isom
File size : 567 MiB
Duration : 39mn 20s
Overall bit rate : 2 014 Kbps
Encoded date : UTC 2011-05-21 20:53:37
Tagged date : UTC 2011-05-22 20:53:59
Video
ID : 1
Format : AVC
Format/Info : Advanced Video Codec
Format profile : [email protected]
Format settings, CABAC : Yes
Format settings, ReFrames : 4 frames
Codec ID : avc1
Codec ID/Info : Advanced Video Coding
Duration : 39mn 19s
Bit rate mode : Variable
Bit rate : 1 853 Kbps
Maximum bit rate : 9 033 Kbps
Width : 1 280 pixels
Height : 720 pixels
Display aspect ratio : 16:9
Frame rate mode : Constant
Frame rate : 25.000 fps
Color space : YUV
Chroma subsampling : 4:2:0
Bit depth : 8 bits
Scan type : Progressive
Bits/(Pixel*Frame) : 0.080
Stream size : 521 MiB (92%)
Writing library : Vimeo Encoder
Encoded date : UTC 2011-05-21 20:53:37
Tagged date : UTC 2011-05-21 20:53:55
Audio
ID : 2
Format : AAC
Format/Info : Advanced Audio Codec
Format profile : LC
Codec ID : 40
Duration : 39mn 20s
Bit rate mode : Variable
Bit rate : 158 Kbps
Maximum bit rate : 198 Kbps
Channel(s) : 2 channels
Channel positions : Front: L R
Sampling rate : 44.1 KHz
Compression mode : Lossy
Stream size : 44.3 MiB (8%)
Encoded date : UTC 2011-05-21 20:53:45
Tagged date : UTC 2011-05-21 20:53:55

Скриншоты







Последний раз редактировалось: Mr_ALo (2011-05-24 10:16), всего редактировалось 1 раз

Создавать темы 24-Май-2011 10:08

[Профиль]  [ЛС] 

Black689

Стаж: 6 лет 8 месяцев

Сообщений: 18

Симпатии: 1

ниче се HD, ой! сорри эт же русский ХД фильм.... ab

Создавать темы 24-Май-2011 10:39

[Профиль]  [ЛС] 

Nevermind

Стаж: 7 лет 3 месяца

Сообщений: 123

Симпатии: 4

Это случаем не то что называли фильмом по С.Т.А.Л.К.Е.Р'у?

Создавать темы 24-Май-2011 12:34

[Профиль]  [ЛС] 

[email protected]

Стаж: 6 лет 8 месяцев

Сообщений: 138

Симпатии: 10

Это случаем не то что называли фильмом по С.Т.А.Л.К.Е.Р'у?
Ага Точно не то ли это ???

Создавать темы 24-Май-2011 17:44

[Профиль]  [ЛС] 

Mixer City

Стаж: 6 лет 9 месяцев

Сообщений: 754

Симпатии: 63

картинка вроде ничё, но режиссер и актёры не очень, скорее всего не стоящий фильм, но скачать и оценить можно

Создавать темы 24-Май-2011 20:28

[Профиль]  [ЛС] 

eeed

Стаж: 6 лет 8 месяцев

Сообщений: 63

Симпатии: 6

ну спорно. очень. если это проба пера так сказать то есть потенциал. но как законченная картина очень слабо. сюжет и смысл очень маленький. операторская работа и голос за кадром весьма хорошо проработаны. подбор музыки - не очень, слишком индивидуально.

Создавать темы 25-Май-2011 00:37

[Профиль]  [ЛС] 

zxc

Стаж: 6 лет 9 месяцев

Сообщений: 39

Фильм зачет.
Игра актеров плохая.

_________________
Подпись отключена за нарушение правил форума

Создавать темы 25-Май-2011 13:17

[Профиль]  [ЛС] 

toxadeep

Стаж: 5 лет 8 месяцев

Сообщений: 3

Народ скорость дайте плиз!!!

Создавать темы 11-Янв-2012 22:30

[Профиль]  [ЛС] 

toxadeep

Стаж: 5 лет 8 месяцев

Сообщений: 3

Ну блин ну дайте а?!

Создавать темы 11-Янв-2012 22:31

[Профиль]  [ЛС] 

toxadeep

Стаж: 5 лет 8 месяцев

Сообщений: 3

Скорости дайте!!!!!

Создавать темы 11-Янв-2012 22:37

[Профиль]  [ЛС] 
Показать сообщения:    
Ответить на тему

Текущее время: 22-Сен 09:25

Часовой пояс: UTC + 5



Вы не можете начинать темы
Вы не можете отвечать на сообщения
Вы не можете редактировать свои сообщения
Вы не можете удалять свои сообщения
Вы не можете голосовать в опросах
Вы не можете прикреплять файлы к сообщениям
Вы не можете скачивать файлы