DotA Allstars DTS Chatrix vs SkyGaming Intel Challenge SuperCup Game 1 and 2 [2011 г., HDTVRip]

Ответить на тему
 

LiS ®

Стаж: 6 лет 9 месяцев

Сообщений: 11

DTS Chatrix vs SkyGaming Intel Challenge SuperCup Game 1 and 2
Год выпуска: 2011
Страна: Россия-Германия
Продолжительность: 95 мин
Описание: Игра между командами DTS Chatrix из России и SkyGaming из Германии. Вилат, как всегда отжигает.
Качество: HDTVRip
Формат: flv
Видео кодек: H.26x
Аудио кодек: AAC
Видео: AVC, 611 Kbps, 640х360, 25.000 fps, 8 bits
Аудио: AAC, 96.7 Kbps, 2 channels, 44.1 KHz, 16 bits

Media Info

Video
Format : AVC
Format/Info : Advanced Video Codec
Format profile : [email protected]
Format settings, CABAC : Yes
Format settings, ReFrames : 3 frames
Duration : 1h 35mn
Bit rate : 611 Kbps
Width : 640 pixels
Height : 360 pixels
Display aspect ratio : 16:9
Frame rate mode : Constant
Frame rate : 25.000 fps
Color space : YUV
Chroma subsampling : 4:2:0
Bit depth : 8 bits
Scan type : Progressive
Bits/(Pixel*Frame) : 0.106
Stream size : 416 MiB (85%)
Audio
Format : AAC
Format/Info : Advanced Audio Codec
Format version : Version 4
Format profile : LC
Duration : 1h 35mn
Bit rate : 96.7 Kbps
Channel(s) : 2 channels
Channel positions : Front: L R
Sampling rate : 44.1 KHz
Bit depth : 16 bits
Stream size : 65.8 MiB (14%)

Скриншоты






Последний раз редактировалось: LiS (2011-05-27 18:45), всего редактировалось 1 раз

Создавать темы 25-Май-2011 20:03

[Профиль]  [ЛС] 

EndT0End

Стаж: 6 лет 7 месяцев

Сообщений: 26

Новая игра?)
Добавлено спустя 1 минута 35 секунд:
Газу


Последний раз редактировалось: EndT0End (2011-05-25 21:09), всего редактировалось 1 раз

Создавать темы 25-Май-2011 21:09

[Профиль]  [ЛС] 

jokerbek

Стаж: 6 лет 11 месяцев

Сообщений: 184

Симпатии: 9

Дай газзуууу ay

Создавать темы 25-Май-2011 21:22

[Профиль]  [ЛС] 

Nikolay K.

Стаж: 7 лет 1 месяц

Сообщений: 10

О СУПЕР!!! Спасибо)))

Создавать темы 25-Май-2011 22:28

[Профиль]  [ЛС] 

baronnn

Стаж: 7 лет 3 месяца

Сообщений: 22

Симпатии: 1

Спасибо!!! ждал когда же зальют ab zd ay

Создавать темы 25-Май-2011 23:25

[Профиль]  [ЛС] 

exiled

Стаж: 6 лет 6 месяцев

Сообщений: 3

Новая игра?)
Добавлено спустя 1 минута 35 секунд:
Газу
Старая... DTS Chatrix больше нет их ))).. но посмотрю обязательно...
Добавлено спустя 2 минуты 28 секунд:
Где раздача ?


Последний раз редактировалось: exiled (2011-05-26 10:52), всего редактировалось 1 раз

Создавать темы 26-Май-2011 10:52

[Профиль]  [ЛС] 

Resty

Стаж: 6 лет 9 месяцев

Сообщений: 26

Симпатии: 1

Спасибо огромное, ребят встаньте на раздачу, оч выручите!!!!

Создавать темы 19-Июл-2011 00:42

[Профиль]  [ЛС] 

JumpStyle

Стаж: 5 лет 9 месяцев

Сообщений: 48

Симпатии: 2

dayte skachat plz 93.9% ostalos

Создавать темы 09-Фев-2012 12:47

[Профиль]  [ЛС] 

Музаф

Стаж: 5 лет 8 месяцев

Сообщений: 4

дайте раздачу плиз

Создавать темы 14-Мар-2012 11:36

[Профиль]  [ЛС] 

Farruxx

Стаж: 5 лет 2 месяца

Сообщений: 55

Симпатии: 1

супер матч.. советую с попкорном смотреть!!!!

Создавать темы 07-Фев-2013 00:40

[Профиль]  [ЛС] 

Farruxx

Стаж: 5 лет 2 месяца

Сообщений: 55

Симпатии: 1

реально зрелищный

Создавать темы 07-Фев-2013 00:41

[Профиль]  [ЛС] 

Kinomen

Стаж: 5 лет

Сообщений: 38

Симпатии: 3

Дайте раздачу пожалуйста

Создавать темы 08-Фев-2013 07:05

[Профиль]  [ЛС] 

hexor

Стаж: 5 лет 1 месяц

Сообщений: 6

Дайте скорости немного осталось

Создавать темы 22-Апр-2013 17:30

[Профиль]  [ЛС] 
Показать сообщения:    
Ответить на тему

Текущее время: 23-Ноя 01:25

Часовой пояс: UTC + 5



Вы не можете начинать темы
Вы не можете отвечать на сообщения
Вы не можете редактировать свои сообщения
Вы не можете удалять свои сообщения
Вы не можете голосовать в опросах
Вы не можете прикреплять файлы к сообщениям
Вы не можете скачивать файлы