DotA Allstars DTS Chatrix vs mG Pick League [2011 г., HDTVRip]

Ответить на тему
 

LiS ®

Стаж: 6 лет 10 месяцев

Сообщений: 11

DTS Chatrix vs mG Pick League
Год выпуска: 2011
Страна: Россия
Продолжительность: 57 мин
Описание: Игра команды DTS Chatrix против команды mG с комментариями Вилата .
Качество: HDTVRip
Формат: flv
Видео кодек: H.26x
Аудио кодек: AAC
Видео: AVC, 611 Kbps, 480х360, 25.000 fps, 8 bits
Аудио: AAC, 96.7 Kbps, 2 channels, 44.1 KHz, 16 bits

Media Info

Video
Format : AVC
Format/Info : Advanced Video Codec
Format profile : [email protected]
Format settings, CABAC : Yes
Format settings, ReFrames : 3 frames
Format settings, GOP : M=1, N=8
Duration : 57mn 33s
Bit rate : 506 Kbps
Width : 480 pixels
Height : 360 pixels
Display aspect ratio : 4:3
Frame rate mode : Constant
Frame rate : 25.000 fps
Color space : YUV
Chroma subsampling : 4:2:0
Bit depth : 8 bits
Scan type : Progressive
Bits/(Pixel*Frame) : 0.117
Stream size : 209 MiB (83%)
Audio
Format : AAC
Format/Info : Advanced Audio Codec
Format version : Version 4
Format profile : LC
Duration : 57mn 33s
Bit rate : 96.7 Kbps
Channel(s) : 2 channels
Channel positions : Front: L R
Sampling rate : 44.1 KHz
Bit depth : 16 bits
Stream size : 39.8 MiB (16%)

Скриншоты






Последний раз редактировалось: LiS (2011-05-27 18:36), всего редактировалось 1 раз

Создавать темы 26-Май-2011 18:57

[Профиль]  [ЛС] 

EndT0End

Стаж: 6 лет 8 месяцев

Сообщений: 26

DTS же распалась ребят,как эта игра 2011г. может быть?

Создавать темы 26-Май-2011 19:09

[Профиль]  [ЛС] 

MrArt

Стаж: 7 лет

Сообщений: 14

Значить они опять возрадились=)

Создавать темы 26-Май-2011 19:20

[Профиль]  [ЛС] 

huch

Стаж: 7 лет 5 месяцев

Сообщений: 8

DTS же распалась ребят,как эта игра 2011г. может быть?
ДТС не распались,просто немного поменялся состав и вот недавно они сменили название команда с ДТС на М5 ,если не ошибаюсь.
П.C. Лис порадуешь ли ты нас еще играми с комментами Вилата?

Создавать темы 27-Май-2011 01:34

[Профиль]  [ЛС] 

LiS ®

Стаж: 6 лет 10 месяцев

Сообщений: 11

Конечно порадую))

Создавать темы 27-Май-2011 07:55

[Профиль]  [ЛС] 

Ala

Стаж: 6 лет 8 месяцев

Сообщений: 45

Добавь ещё =) спс


Последний раз редактировалось: Ala (2011-05-27 09:35), всего редактировалось 1 раз

Создавать темы 27-Май-2011 09:35

[Профиль]  [ЛС] 

huch

Стаж: 7 лет 5 месяцев

Сообщений: 8

Конечно порадую))
Ждём-с)Заранее спасибо

Создавать темы 27-Май-2011 11:15

[Профиль]  [ЛС] 

baronnn

Стаж: 7 лет 4 месяца

Сообщений: 22

Симпатии: 1

Спасибо тебе огромное zd ay

Создавать темы 27-Май-2011 20:56

[Профиль]  [ЛС] 

exiled

Стаж: 6 лет 7 месяцев

Сообщений: 3

На раздаче когда сидишь ???

Создавать темы 28-Май-2011 10:06

[Профиль]  [ЛС] 

sixaxis

Стаж: 6 лет 8 месяцев

Сообщений: 75

спс автору за оперативность

Создавать темы 28-Май-2011 12:29

[Профиль]  [ЛС] 

Resty

Стаж: 6 лет 10 месяцев

Сообщений: 26

Симпатии: 1

Спасибо огромное, респект ab
Добавлено спустя 8 минут 19 секунд:
кстати ребят кому не трудно встаньте на раздачу пож. скоростя слабые совсем


Последний раз редактировалось: Resty (2011-07-19 00:42), всего редактировалось 1 раз

Создавать темы 19-Июл-2011 00:42

[Профиль]  [ЛС] 

warmen

Стаж: 7 лет 2 месяца

Сообщений: 101

Симпатии: 4

Cкорости прибавьте)

Создавать темы 19-Июл-2011 18:22

[Профиль]  [ЛС] 
Показать сообщения:    
Ответить на тему

Текущее время: 18-Дек 15:59

Часовой пояс: UTC + 5



Вы не можете начинать темы
Вы не можете отвечать на сообщения
Вы не можете редактировать свои сообщения
Вы не можете удалять свои сообщения
Вы не можете голосовать в опросах
Вы не можете прикреплять файлы к сообщениям
Вы не можете скачивать файлы