Профессиональное обучение C# Base [2011 г.]

Ответить на тему
 

рыжий ®

Стаж: 7 лет 6 месяцев

Сообщений: 169

Симпатии: 130

Профессиональное обучение C# Base
Производитель: Профессиональное обучение C#
Год выпуска: 2011
Язык: русский
Описание: Курс состоит из подробных видеоуроков по основам языка C# и платформы .Net Framework. Помимо видеозаписей в курсе вы также найдете исходные коды всех программ, сделанных в процессе прохождения очередного урока, методические материалы с теорией, видео с разбором наиболее сложной части курса и основной бонус - вебинар “Программа за час на C#”.
Все материалы курса - уникальны, это абсолютно авторская информация, основанная на многолетнем опыте и переработанная с учетом текущих реалий.
Урок 1. Основы языка
Устройство .Net Framework
Базовый синтаксис
Переменные, типы, операции над ними
Ветвления, циклы
Базовые понятия объектов и классов
Вывод и чтение текста в консоли
Работа с файловой системой и текстовыми файлами
Урок 2. Классы и объекты. Часть 1
Понятие класса, объекта
Поле - понятие и объявление
Конструкотр класса
Методы - объявление, параметры, возвращаемое значение
Создание собственного класса
Урок 3. Классы и объекты. Часть 2
Основы ООП
Инкапсуляция, наследование, полиморфизм
Уровни видимости
Интерфейсы
Перегрузка методов и свойств
Работа с памятью - финализатор и IDisposable
Создание собственного семейства классов
Урок 4. Массивы и коллекции
Понятие массива и коллекции, отличия
Обощенные типы (generics)
Основные классы массивов и коллекций
Цикл foreach
Обработка исключений
Урок 5. Работа с XML
Формат XML
Структура XML
Синтаксис XML
Работа с XML в C#
Основные классы для работы с XML
Модификация приложения под новый формат данных
Урок 6. Оконный интерфейс
Формы в C#
Элементы управления
Кнопка, метка - базовые элементы
Создание собственного оконого интерфейса
Работа с данными - элемент управления таблица
События и обработчики
Урок 7. SQL и SQL Server 2008 Express
Общие понятия теории баз данных
Реляционные базы данных
Язык SQL - основные команды
SQL Server 2008 Express - установка и настройка
SQL Server Management Studio - работа с БД
Создание собственной базы данных
Урок 8. Основы ADO.NET
Основы архитектуры ADO.NET
SqlConnection, SqlCommand, SqlDataReader
Перевод приложения на БД
Урок 9. Добавление “фишек”
Построение дополнительной иерархии классов
Добавление функционала фильтрации
Еще больше применения ООП
Урок 10. Секретный
Необычный урок, который надо смотреть только после выполнения всех предыдущих заданий.
После прохождения обучения каждый ученик напишет полнофункциональное приложение для учета личных финансов, которое может быть с легкостью расширено в дальнейшем

Скриншоты





MediaInfo по файлам

Video. Lesson 1. Part 1

Общее
Полное имя : F:\C# Base\Video. Lesson 1. Part 1.avi
Формат : MPEG-4
Профиль формата : Base Media / Version 2
Идентификатор кодека : mp42
Размер файла : 74,3 Мбайт
Продолжительность : 50 м.
Общий поток : 205 Кбит/сек
Дата кодирования : UTC 2010-12-16 19:43:47
Дата пометки : UTC 2010-12-16 19:43:47
Видео
Идентификатор : 1
Формат : AVC
Формат/Информация : Advanced Video Codec
Профиль формата : [email protected]
Параметр CABAC формата : Да
Параметр ReFrames формата : 4 кадра
Идентификатор кодека : avc1
Идентификатор кодека/Информация : Advanced Video Coding
Продолжительность : 50 м.
Вид битрейта : Переменный
Битрейт : 77,7 Кбит/сек
Ширина : 960 пикс.
Высота : 600 пикс.
Соотношение сторон : 1,600
Режим частоты кадров : Постоянный
Частота кадров : 15,000 кадр/сек
Цветовое пространство : YUV
Подвыборка цветности : 4:2:0
Битовая глубина : 8 бит
Тип развёртки : Прогрессивная
Бит/(Пиксели*Кадры) : 0.009
Размер потока : 28,1 Мбайт (38%)
Язык : English
Дата кодирования : UTC 2010-12-16 19:43:47
Дата пометки : UTC 2010-12-16 19:43:47
Основные цвета : BT.709-5, BT.1361, IEC 61966-2-4, SMPTE RP177
Характеристики трансфера : BT.709-5, BT.1361
Коэффициенты матрицы : BT.709-5, BT.1361, IEC 61966-2-4 709, SMPTE RP177
Аудио
Идентификатор : 2
Формат : AAC
Формат/Информация : Advanced Audio Codec
Профиль формата : LC
Идентификатор кодека : 40
Продолжительность : 50 м.
Вид битрейта : Постоянный
Битрейт : 126 Кбит/сек
Каналы : 2 канала
Расположение каналов : Front: L R
Частота : 44,1 КГц
Метод сжатия : С потерями
Размер потока : 45,4 Мбайт (61%)
Язык : English
Дата кодирования : UTC 2010-12-16 19:43:47
Дата пометки : UTC 2010-12-16 19:43:47

Video. Lesson 1. Part 2

Общее
Полное имя : F:\C# Base\Video. Lesson 1. Part 2.avi
Формат : MPEG-4
Профиль формата : Base Media / Version 2
Идентификатор кодека : mp42
Размер файла : 33,0 Мбайт
Продолжительность : 22 м.
Общий поток : 202 Кбит/сек
Дата кодирования : UTC 2010-12-16 22:11:35
Дата пометки : UTC 2010-12-16 22:11:35
Видео
Идентификатор : 1
Формат : AVC
Формат/Информация : Advanced Video Codec
Профиль формата : [email protected]
Параметр CABAC формата : Да
Параметр ReFrames формата : 4 кадра
Идентификатор кодека : avc1
Идентификатор кодека/Информация : Advanced Video Coding
Продолжительность : 22 м.
Вид битрейта : Переменный
Битрейт : 74,6 Кбит/сек
Ширина : 960 пикс.
Высота : 600 пикс.
Соотношение сторон : 1,600
Режим частоты кадров : Постоянный
Частота кадров : 15,000 кадр/сек
Цветовое пространство : YUV
Подвыборка цветности : 4:2:0
Битовая глубина : 8 бит
Тип развёртки : Прогрессивная
Бит/(Пиксели*Кадры) : 0.009
Размер потока : 12,2 Мбайт (37%)
Язык : English
Дата кодирования : UTC 2010-12-16 22:11:35
Дата пометки : UTC 2010-12-16 22:11:35
Основные цвета : BT.709-5, BT.1361, IEC 61966-2-4, SMPTE RP177
Характеристики трансфера : BT.709-5, BT.1361
Коэффициенты матрицы : BT.709-5, BT.1361, IEC 61966-2-4 709, SMPTE RP177
Аудио
Идентификатор : 2
Формат : AAC
Формат/Информация : Advanced Audio Codec
Профиль формата : LC
Идентификатор кодека : 40
Продолжительность : 22 м.
Вид битрейта : Постоянный
Битрейт : 126 Кбит/сек
Каналы : 2 канала
Расположение каналов : Front: L R
Частота : 44,1 КГц
Метод сжатия : С потерями
Размер потока : 20,5 Мбайт (62%)
Язык : English
Дата кодирования : UTC 2010-12-16 22:11:35
Дата пометки : UTC 2010-12-16 22:11:35

Video. Lesson 2

Общее
Полное имя : F:\C# Base\Video. Lesson 2.avi
Формат : MPEG-4
Профиль формата : Base Media / Version 2
Идентификатор кодека : mp42
Размер файла : 84,9 Мбайт
Продолжительность : 48 м.
Общий поток : 246 Кбит/сек
Дата кодирования : UTC 2010-12-18 22:40:11
Дата пометки : UTC 2010-12-18 22:40:11
Видео
Идентификатор : 1
Формат : AVC
Формат/Информация : Advanced Video Codec
Профиль формата : [email protected]
Параметр CABAC формата : Да
Параметр ReFrames формата : 4 кадра
Идентификатор кодека : avc1
Идентификатор кодека/Информация : Advanced Video Coding
Продолжительность : 48 м.
Вид битрейта : Переменный
Битрейт : 118 Кбит/сек
Ширина : 1280 пикс.
Высота : 800 пикс.
Соотношение сторон : 1,600
Режим частоты кадров : Постоянный
Частота кадров : 15,000 кадр/сек
Цветовое пространство : YUV
Подвыборка цветности : 4:2:0
Битовая глубина : 8 бит
Тип развёртки : Прогрессивная
Бит/(Пиксели*Кадры) : 0.008
Размер потока : 40,8 Мбайт (48%)
Язык : English
Дата кодирования : UTC 2010-12-18 22:40:11
Дата пометки : UTC 2010-12-18 22:40:11
Основные цвета : BT.709-5, BT.1361, IEC 61966-2-4, SMPTE RP177
Характеристики трансфера : BT.709-5, BT.1361
Коэффициенты матрицы : BT.709-5, BT.1361, IEC 61966-2-4 709, SMPTE RP177
Аудио
Идентификатор : 2
Формат : AAC
Формат/Информация : Advanced Audio Codec
Профиль формата : LC
Идентификатор кодека : 40
Продолжительность : 48 м.
Вид битрейта : Постоянный
Битрейт : 126 Кбит/сек
Каналы : 2 канала
Расположение каналов : Front: L R
Частота : 44,1 КГц
Метод сжатия : С потерями
Размер потока : 43,4 Мбайт (51%)
Язык : English
Дата кодирования : UTC 2010-12-18 22:40:11
Дата пометки : UTC 2010-12-18 22:40:11

Video. Lesson 3

Общее
Полное имя : F:\C# Base\Video. Lesson 3.avi
Формат : MPEG-4
Профиль формата : Base Media / Version 2
Идентификатор кодека : mp42
Размер файла : 62,5 Мбайт
Продолжительность : 56 м.
Общий поток : 156 Кбит/сек
Дата кодирования : UTC 2010-12-13 00:56:46
Дата пометки : UTC 2010-12-13 00:56:46
Видео
Идентификатор : 1
Формат : AVC
Формат/Информация : Advanced Video Codec
Профиль формата : [email protected]
Параметр CABAC формата : Да
Параметр ReFrames формата : 4 кадра
Идентификатор кодека : avc1
Идентификатор кодека/Информация : Advanced Video Coding
Продолжительность : 56 м.
Вид битрейта : Переменный
Битрейт : 60,5 Кбит/сек
Ширина : 800 пикс.
Высота : 600 пикс.
Соотношение сторон : 4:3
Режим частоты кадров : Постоянный
Частота кадров : 15,000 кадр/сек
Цветовое пространство : YUV
Подвыборка цветности : 4:2:0
Битовая глубина : 8 бит
Тип развёртки : Прогрессивная
Бит/(Пиксели*Кадры) : 0.008
Размер потока : 24,3 Мбайт (39%)
Язык : English
Дата кодирования : UTC 2010-12-13 00:56:46
Дата пометки : UTC 2010-12-13 00:56:46
Основные цвета : BT.709-5, BT.1361, IEC 61966-2-4, SMPTE RP177
Характеристики трансфера : BT.709-5, BT.1361
Коэффициенты матрицы : BT.709-5, BT.1361, IEC 61966-2-4 709, SMPTE RP177
Аудио
Идентификатор : 2
Формат : AAC
Формат/Информация : Advanced Audio Codec
Профиль формата : LC
Идентификатор кодека : 40
Продолжительность : 56 м.
Вид битрейта : Постоянный
Битрейт : 93,5 Кбит/сек
Каналы : 2 канала
Расположение каналов : Front: L R
Частота : 44,1 КГц
Метод сжатия : С потерями
Размер потока : 37,5 Мбайт (60%)
Язык : English
Дата кодирования : UTC 2010-12-13 00:56:46
Дата пометки : UTC 2010-12-13 00:56:46

Video. Lesson 4

Общее
Полное имя : F:\C# Base\Video. Lesson 4.avi
Формат : BDAV
Формат/Информация : Blu-ray Video
Размер файла : 118 Мбайт

Video. Lesson 5

Общее
Полное имя : F:\C# Base\Video. Lesson 5.avi
Формат : MPEG-4
Профиль формата : Base Media / Version 2
Идентификатор кодека : mp42
Размер файла : 58,9 Мбайт
Продолжительность : 46 м.
Общий поток : 175 Кбит/сек
Дата кодирования : UTC 2010-12-16 23:38:38
Дата пометки : UTC 2010-12-16 23:38:38
Видео
Идентификатор : 1
Формат : AVC
Формат/Информация : Advanced Video Codec
Профиль формата : [email protected]
Параметр CABAC формата : Да
Параметр ReFrames формата : 4 кадра
Идентификатор кодека : avc1
Идентификатор кодека/Информация : Advanced Video Coding
Продолжительность : 46 м.
Вид битрейта : Переменный
Битрейт : 80,0 Кбит/сек
Ширина : 800 пикс.
Высота : 600 пикс.
Соотношение сторон : 4:3
Режим частоты кадров : Постоянный
Частота кадров : 15,000 кадр/сек
Цветовое пространство : YUV
Подвыборка цветности : 4:2:0
Битовая глубина : 8 бит
Тип развёртки : Прогрессивная
Бит/(Пиксели*Кадры) : 0.011
Размер потока : 26,8 Мбайт (46%)
Язык : English
Дата кодирования : UTC 2010-12-16 23:38:38
Дата пометки : UTC 2010-12-16 23:38:38
Основные цвета : BT.709-5, BT.1361, IEC 61966-2-4, SMPTE RP177
Характеристики трансфера : BT.709-5, BT.1361
Коэффициенты матрицы : BT.709-5, BT.1361, IEC 61966-2-4 709, SMPTE RP177
Аудио
Идентификатор : 2
Формат : AAC
Формат/Информация : Advanced Audio Codec
Профиль формата : LC
Идентификатор кодека : 40
Продолжительность : 46 м.
Вид битрейта : Постоянный
Битрейт : 93,5 Кбит/сек
Каналы : 2 канала
Расположение каналов : Front: L R
Частота : 44,1 КГц
Метод сжатия : С потерями
Размер потока : 31,3 Мбайт (53%)
Язык : English
Дата кодирования : UTC 2010-12-16 23:38:38
Дата пометки : UTC 2010-12-16 23:38:38

Video. Lesson 6

Общее
Полное имя : F:\C# Base\Video. Lesson 6.avi
Формат : MPEG-4
Профиль формата : Base Media / Version 2
Идентификатор кодека : mp42
Размер файла : 93,3 Мбайт
Продолжительность : 1 ч. 9 м.
Общий поток : 187 Кбит/сек
Дата кодирования : UTC 2010-12-17 07:04:30
Дата пометки : UTC 2010-12-17 07:04:30
Видео
Идентификатор : 1
Формат : AVC
Формат/Информация : Advanced Video Codec
Профиль формата : [email protected]
Параметр CABAC формата : Да
Параметр ReFrames формата : 4 кадра
Идентификатор кодека : avc1
Идентификатор кодека/Информация : Advanced Video Coding
Продолжительность : 1 ч. 9 м.
Вид битрейта : Переменный
Битрейт : 91,5 Кбит/сек
Ширина : 800 пикс.
Высота : 600 пикс.
Соотношение сторон : 4:3
Режим частоты кадров : Постоянный
Частота кадров : 15,000 кадр/сек
Цветовое пространство : YUV
Подвыборка цветности : 4:2:0
Битовая глубина : 8 бит
Тип развёртки : Прогрессивная
Бит/(Пиксели*Кадры) : 0.013
Размер потока : 45,6 Мбайт (49%)
Язык : English
Дата кодирования : UTC 2010-12-17 07:04:30
Дата пометки : UTC 2010-12-17 07:04:30
Основные цвета : BT.709-5, BT.1361, IEC 61966-2-4, SMPTE RP177
Характеристики трансфера : BT.709-5, BT.1361
Коэффициенты матрицы : BT.709-5, BT.1361, IEC 61966-2-4 709, SMPTE RP177
Аудио
Идентификатор : 2
Формат : AAC
Формат/Информация : Advanced Audio Codec
Профиль формата : LC
Идентификатор кодека : 40
Продолжительность : 1 ч. 9 м.
Вид битрейта : Постоянный
Битрейт : 93,7 Кбит/сек
Каналы : 2 канала
Расположение каналов : Front: L R
Частота : 44,1 КГц
Метод сжатия : С потерями
Размер потока : 46,7 Мбайт (50%)
Язык : English
Дата кодирования : UTC 2010-12-17 07:04:30
Дата пометки : UTC 2010-12-17 07:04:30

Video. Lesson 7

Общее
Полное имя : F:\C# Base\Video. Lesson 7.avi
Формат : MPEG-4
Профиль формата : Base Media / Version 2
Идентификатор кодека : mp42
Размер файла : 81,3 Мбайт
Продолжительность : 1 ч. 14 м.
Общий поток : 153 Кбит/сек
Дата кодирования : UTC 2010-12-17 09:22:35
Дата пометки : UTC 2010-12-17 09:22:35
Видео
Идентификатор : 1
Формат : AVC
Формат/Информация : Advanced Video Codec
Профиль формата : [email protected]
Параметр CABAC формата : Да
Параметр ReFrames формата : 4 кадра
Идентификатор кодека : avc1
Идентификатор кодека/Информация : Advanced Video Coding
Продолжительность : 1 ч. 14 м.
Вид битрейта : Переменный
Битрейт : 57,5 Кбит/сек
Ширина : 800 пикс.
Высота : 600 пикс.
Соотношение сторон : 4:3
Режим частоты кадров : Постоянный
Частота кадров : 15,000 кадр/сек
Цветовое пространство : YUV
Подвыборка цветности : 4:2:0
Битовая глубина : 8 бит
Тип развёртки : Прогрессивная
Бит/(Пиксели*Кадры) : 0.008
Размер потока : 30,5 Мбайт (38%)
Язык : English
Дата кодирования : UTC 2010-12-17 09:22:35
Дата пометки : UTC 2010-12-17 09:22:35
Основные цвета : BT.709-5, BT.1361, IEC 61966-2-4, SMPTE RP177
Характеристики трансфера : BT.709-5, BT.1361
Коэффициенты матрицы : BT.709-5, BT.1361, IEC 61966-2-4 709, SMPTE RP177
Аудио
Идентификатор : 2
Формат : AAC
Формат/Информация : Advanced Audio Codec
Профиль формата : LC
Идентификатор кодека : 40
Продолжительность : 1 ч. 14 м.
Вид битрейта : Постоянный
Битрейт : 93,5 Кбит/сек
Каналы : 2 канала
Расположение каналов : Front: L R
Частота : 44,1 КГц
Метод сжатия : С потерями
Размер потока : 49,7 Мбайт (61%)
Язык : English
Дата кодирования : UTC 2010-12-17 09:22:35
Дата пометки : UTC 2010-12-17 09:22:35

Video. Lesson 8

Общее
Полное имя : F:\C# Base\Video. Lesson 8.avi
Формат : MPEG-4
Профиль формата : Base Media / Version 2
Идентификатор кодека : mp42
Размер файла : 56,5 Мбайт
Продолжительность : 45 м.
Общий поток : 175 Кбит/сек
Дата кодирования : UTC 2010-12-17 10:51:27
Дата пометки : UTC 2010-12-17 10:51:27
Видео
Идентификатор : 1
Формат : AVC
Формат/Информация : Advanced Video Codec
Профиль формата : [email protected]
Параметр CABAC формата : Да
Параметр ReFrames формата : 4 кадра
Идентификатор кодека : avc1
Идентификатор кодека/Информация : Advanced Video Coding
Продолжительность : 45 м.
Вид битрейта : Переменный
Битрейт : 79,6 Кбит/сек
Ширина : 800 пикс.
Высота : 600 пикс.
Соотношение сторон : 4:3
Режим частоты кадров : Постоянный
Частота кадров : 15,000 кадр/сек
Цветовое пространство : YUV
Подвыборка цветности : 4:2:0
Битовая глубина : 8 бит
Тип развёртки : Прогрессивная
Бит/(Пиксели*Кадры) : 0.011
Размер потока : 25,7 Мбайт (45%)
Язык : English
Дата кодирования : UTC 2010-12-17 10:51:27
Дата пометки : UTC 2010-12-17 10:51:27
Основные цвета : BT.709-5, BT.1361, IEC 61966-2-4, SMPTE RP177
Характеристики трансфера : BT.709-5, BT.1361
Коэффициенты матрицы : BT.709-5, BT.1361, IEC 61966-2-4 709, SMPTE RP177
Аудио
Идентификатор : 2
Формат : AAC
Формат/Информация : Advanced Audio Codec
Профиль формата : LC
Идентификатор кодека : 40
Продолжительность : 45 м.
Вид битрейта : Постоянный
Битрейт : 93,6 Кбит/сек
Каналы : 2 канала
Расположение каналов : Front: L R
Частота : 44,1 КГц
Метод сжатия : С потерями
Размер потока : 30,1 Мбайт (53%)
Язык : English
Дата кодирования : UTC 2010-12-17 10:51:27
Дата пометки : UTC 2010-12-17 10:51:27

Video. Lesson 9

Общее
Полное имя : F:\C# Base\Video. Lesson 9.avi
Формат : BDAV
Формат/Информация : Blu-ray Video
Профиль формата : No PAT/PMT
Размер файла : 81,8 Мбайт

Video. Lesson 10

Общее
Полное имя : F:\C# Base\Video. Lesson 10.mp4
Формат : MPEG-4
Профиль формата : Base Media / Version 2
Идентификатор кодека : mp42
Размер файла : 7,67 Мбайт
Продолжительность : 3 м. 3 с.
Общий поток : 351 Кбит/сек
Дата кодирования : UTC 2011-01-10 17:36:14
Дата пометки : UTC 2011-01-10 17:37:58
Видео
Идентификатор : 1
Формат : MPEG-4 Visual
Профиль формата : Advanced [email protected]
Параметр BVOP формата : Да
Параметр QPel формата : Нет
Параметр GMC формата : Без точки перехода
Параметр матрицы формата : Default (H.263)
Идентификатор кодека : 20
Продолжительность : 3 м. 3 с.
Вид битрейта : Постоянный
Битрейт : 256 Кбит/сек
Ширина : 352 пикс.
Высота : 288 пикс.
Соотношение сторон : 1,222
Режим частоты кадров : Постоянный
Частота кадров : 30,120 кадр/сек
Стандарт вещания : PAL
Цветовое пространство : YUV
Битовая глубина : 8 бит
Тип развёртки : Прогрессивная
Метод сжатия : С потерями
Бит/(Пиксели*Кадры) : 0.084
Размер потока : 5,34 Мбайт (70%)
Заголовок : Ћбработчик видео Apple
Язык : English
Дата кодирования : UTC 2011-01-10 17:36:17
Дата пометки : UTC 2011-01-10 17:37:58
Аудио
Идентификатор : 2
Формат : AAC
Формат/Информация : Advanced Audio Codec
Профиль формата : LC
Идентификатор кодека : 40
Продолжительность : 3 м. 3 с.
Вид битрейта : Постоянный
Битрейт : 104 Кбит/сек
Номинальный битрейт : 128 Кбит/сек
Каналы : 2 канала
Расположение каналов : Front: L R
Частота : 44,1 КГц
Метод сжатия : С потерями
Размер потока : 2,27 Мбайт (30%)
Заголовок : Ћбработчик звука Apple
Язык : English
Дата кодирования : UTC 2011-01-10 17:36:21
Дата пометки : UTC 2011-01-10 17:37:58


Последний раз редактировалось: рыжий (2011-05-27 17:04), всего редактировалось 8 раз(а)

Создавать темы 26-Май-2011 22:43

[Профиль]  [ЛС] 

Mr_ALo

Стаж: 7 лет 11 месяцев

Сообщений: 367

Симпатии: 20

рыжий добавь видео и аудио данные
и шапку исправь Профессиональное обучение C# Base [2011 г.]

Создавать темы 26-Май-2011 23:06

[Профиль]  [ЛС] 

Arnold

Стаж: 6 лет 7 месяцев

Сообщений: 149

Симпатии: 5

ay

Создавать темы 26-Май-2011 23:22

[Профиль]  [ЛС] 

3Dmonster

Стаж: 6 лет 6 месяцев

Сообщений: 18

Вот не нравится мне 2010тая версия.
Но чужой труд уважаю -)

Создавать темы 27-Май-2011 00:20

[Профиль]  [ЛС] 

misteraz

Стаж: 6 лет 6 месяцев

Сообщений: 9

скачал буквально 10% и загорелся красным!!!!
почему не скачивает???

Создавать темы 08-Июн-2011 19:53

[Профиль]  [ЛС] 

Hurshid aka

Стаж: 7 лет 3 месяца

Сообщений: 4

Здравствуйте
Я скачал Профессиональное обучение C# Base но не могу найти VISUAL STUDIO
У кого есть VISUAL STUDIO помогите
Мне очень надо скачать прогу VISUAL STUDIO помогите пожалуйста

Создавать темы 10-Ноя-2011 14:01

[Профиль]  [ЛС] 

jmasudych

Стаж: 5 лет 10 месяцев

Сообщений: 5

Симпатии: 14

Помогите с раздачей, скорость увеличте

Создавать темы 02-Фев-2012 21:41

[Профиль]  [ЛС] 

dimanjon

Стаж: 5 лет 10 месяцев

Сообщений: 107

Симпатии: 9

Автору большой респект

Создавать темы 14-Мар-2012 16:15

[Профиль]  [ЛС] 

avatar5225

Стаж: 5 лет 5 месяцев

Сообщений: 11

кто нибудь поставьте на раздачу...!!!!!! плииизззз!!!!!!

Информация от nadezcda


3.9. Размещать бессмысленные сообщения, не несущие абсолютно никакой полезной информации, типа "дайте скорости", "встаньте на раздачу", "раздаю", "газу" и т.п.

Создавать темы 30-Апр-2014 22:58

[Профиль]  [ЛС] 
Показать сообщения:    
Ответить на тему

Текущее время: 24-Ноя 14:15

Часовой пояс: UTC + 5



Вы не можете начинать темы
Вы не можете отвечать на сообщения
Вы не можете редактировать свои сообщения
Вы не можете удалять свои сообщения
Вы не можете голосовать в опросах
Вы не можете прикреплять файлы к сообщениям
Вы не можете скачивать файлы