MoscowFive.Dota vs GG.Net @ GosuCup Final Game 3 [2011 г., HDTVRip]

Страницы :  1, 2  След.

Ответить на тему
 

LiS ®

Стаж: 6 лет 10 месяцев

Сообщений: 11

MoscowFive.Dota vs GG.Net @ GosuCup Final Game 3
Год выпуска: 2011
Страна: Россия
Продолжительность: 48 мин
Описание: Игра между командами MoscowFive GarajGaming (бывшие DTS Chatrix) и GG.Net. Комментирует, как всегда, v1lat.
Качество: HDTVRip
Формат: flv
Видео кодек: H.26x
Аудио кодек: AAC
Видео: AVC, 611 Kbps, 640х360, 25.000 fps, 8 bits
Аудио: AAC, 96.7 Kbps, 2 channels, 44.1 KHz, 16 bits

Media Info

Video
Format : AVC
Format/Info : Advanced Video Codec
Format profile : [email protected]
Format settings, CABAC : Yes
Format settings, ReFrames : 3 frames
Duration : 47mn 59s
Bit rate : 697 Kbps
Width : 640 pixels
Height : 360 pixels
Display aspect ratio : 16:9
Frame rate mode : Constant
Frame rate : 25.000 fps
Color space : YUV
Chroma subsampling : 4:2:0
Bit depth : 8 bits
Scan type : Progressive
Bits/(Pixel*Frame) : 0.121
Stream size : 239 MiB (84%)
Audio
Format : AAC
Format/Info : Advanced Audio Codec
Format version : Version 4
Format profile : LC
Duration : 47mn 59s
Bit rate : 129 Kbps
Channel(s) : 2 channels
Channel positions : Front: L R
Sampling rate : 44.1 KHz
Bit depth : 16 bits
Stream size : 44.2 MiB (15%)

Скриншоты




Создавать темы 27-Май-2011 18:45

[Профиль]  [ЛС] 

PROSTREET

Стаж: 7 лет 7 месяцев

Сообщений: 78

Симпатии: 2

вот это я понимаю игра, даёшь свежатины ещё!))

Создавать темы 27-Май-2011 19:07

[Профиль]  [ЛС] 

huch

Стаж: 7 лет 5 месяцев

Сообщений: 8

Спасибо,заливай еще ab az


Последний раз редактировалось: huch (2011-05-27 19:13), всего редактировалось 1 раз

Создавать темы 27-Май-2011 19:09

[Профиль]  [ЛС] 

EndT0End

Стаж: 6 лет 8 месяцев

Сообщений: 26

Народ Газу

Создавать темы 27-Май-2011 19:12

[Профиль]  [ЛС] 

Ala

Стаж: 6 лет 8 месяцев

Сообщений: 45

pc класс !

Создавать темы 27-Май-2011 20:25

[Профиль]  [ЛС] 

baronnn

Стаж: 7 лет 3 месяца

Сообщений: 22

Симпатии: 1

Спасибо!!!

Создавать темы 27-Май-2011 21:06

[Профиль]  [ЛС] 

Nikolay K.

Стаж: 7 лет 1 месяц

Сообщений: 10

супер!!! Спасибо)))

Создавать темы 27-Май-2011 22:38

[Профиль]  [ЛС] 

Nikolay K.

Стаж: 7 лет 1 месяц

Сообщений: 10

Супер!!!!Спасибо)

Создавать темы 27-Май-2011 22:39

[Профиль]  [ЛС] 

Nikolay K.

Стаж: 7 лет 1 месяц

Сообщений: 10

Супер!!!!Спасибо)

Создавать темы 27-Май-2011 22:40

[Профиль]  [ЛС] 

Nikolay K.

Стаж: 7 лет 1 месяц

Сообщений: 10

Супер!!!!Спасибо)

Создавать темы 27-Май-2011 22:40

[Профиль]  [ЛС] 

huch

Стаж: 7 лет 5 месяцев

Сообщений: 8

Мб скорости дашь лис?уже 20 часов качаю и скачал всего 50%

Создавать темы 28-Май-2011 16:13

[Профиль]  [ЛС] 

Alisher1704

Стаж: 7 лет 2 месяца

Сообщений: 8

Симпатии: 1

Большое спасибо, только скорости дай побольше плиз

Создавать темы 28-Май-2011 18:27

[Профиль]  [ЛС] 

EndT0End

Стаж: 6 лет 8 месяцев

Сообщений: 26

Газууууу aq

Создавать темы 28-Май-2011 20:50

[Профиль]  [ЛС] 

Nikolay K.

Стаж: 7 лет 1 месяц

Сообщений: 10

дайте скорости!!! 50% за 20 часов

Создавать темы 28-Май-2011 22:30

[Профиль]  [ЛС] 

federal

Стаж: 7 лет 9 месяцев

Сообщений: 29

дайте скачать) плз)

Создавать темы 22-Мар-2012 23:38

[Профиль]  [ЛС] 
Показать сообщения:    
Ответить на тему

Текущее время: 12-Дек 02:09

Часовой пояс: UTC + 5



Вы не можете начинать темы
Вы не можете отвечать на сообщения
Вы не можете редактировать свои сообщения
Вы не можете удалять свои сообщения
Вы не можете голосовать в опросах
Вы не можете прикреплять файлы к сообщениям
Вы не можете скачивать файлы