Секс в большом городе 2 / Sex and the City 2 (М. П. Кинг) [2010 г., Комедия, мелодрама, драма, DVDRip] :: ЛИЦЕНЗИЯ!

Страницы :  1, 2  След.

Ответить на тему
 

Mixer City ®

Стаж: 6 лет 11 месяцев

Сообщений: 754

Симпатии: 63

Секс в большом городе 2 / Sex and the City 2 :: ЛИЦЕНЗИЯ!--
Год выпуска :: 2010
Страна :: США
Жанр :: Комедия, мелодрама, драма
Продолжительность :: 100 мин
Перевод :: Профессиональный (полное дублирование) :: ЛИЦЕНЗИЯ!
Языки :: Русский + Английский--Режиссер :: Майкл Патрик Кинг--В ролях: Сара Джессика Паркер, Ким Кэттрел, Кристин Дэвис, Синтия Никсон, Крис Нот, Дэвид Айгенберг, Эван Хэндлер, Джейсон Льюис, Марио Кантоне, Вилли Гарсон и др.--Описание: Безумное веселье, яркая мода и преданная дружба: «Секс в большом городе-2» снова дарит нам их, и даже больше, ведь Кэрри, Саманта, Шарлотта и Миранда готовы показать нам еще один «кусочек» их жизни в «Большом Яблоке» — и за его пределами, — как они устраивают свои дела и личную жизнь в этом действительно сверкающем сиквеле.
Что происходит, когда сказано самое главное слово: «Да»? Жизнь становится такой, о которой мечтали подруги, но это был бы не «Секс в большом городе», если бы судьба не приготовила пару сюрпризов… на этот раз в виде гламурного, насыщенного солнцем приключения, которое уносит девушек из Нью-Йорка в одно из наиболее роскошных, экзотических и живописных местечек на земле, туда, где никогда не заканчивается веселье, где за каждым углом происходит что-то загадочное. В самый подходящий момент четыре закадычные подруги совершают своеобразный побег и оказываются вовлеченными в борьбу с традиционными представлениями о браке, материнстве и т. д и т. п.
В конце концов, у их противников просто нет шансов.--Качество :: DVDRip
Формат :: AVI
Видео кодек :: DivX
Аудио кодек :: AC3
Видео :: 720x400 , 1479 Kbps
Аудио 1 :: 6 ch , 384 Kbps [Русский]
Аудио 2 :: 2 ch , 128 Kbps [Английский]--Не забываем нажимать :: Спасибо, если не трудно... и можно +

Media Info

General
Complete name : Sex.and.the.City.2.2010.DVDRip.avi
Format : AVI
Format/Info : Audio Video Interleave
Format profile : OpenDML
File size : 2.06 GiB
Duration : 2h 26mn
Overall bit rate : 2 009 Kbps
Writing application : VirtualDubMod 1.5.4.1 (build 2178/release)
Writing library : VirtualDubMod build 2178/release
Video
ID : 0
Format : MPEG-4 Visual
Format profile : Advanced [email protected]
Format settings, BVOP : 1
Format settings, QPel : No
Format settings, GMC : No warppoints
Format settings, Matrix : Custom
Codec ID : XVID
Codec ID/Hint : XviD
Duration : 2h 26mn
Bit rate : 1 479 Kbps
Width : 720 pixels
Height : 400 pixels
Display aspect ratio : 16:9
Frame rate : 23.976 fps
Color space : YUV
Chroma subsampling : 4:2:0
Bit depth : 8 bits
Scan type : Progressive
Compression mode : Lossy
Bits/(Pixel*Frame) : 0.214
Stream size : 1.51 GiB (74%)
Writing library : XviD 1.2.1 (UTC 2008-12-04)
Audio #1
ID : 1
Format : AC-3
Format/Info : Audio Coding 3
Mode extension : CM (complete main)
Codec ID : 2000
Duration : 2h 26mn
Bit rate mode : Constant
Bit rate : 384 Kbps
Channel(s) : 6 channels
Channel positions : Front: L C R, Side: L R, LFE
Sampling rate : 48.0 KHz
Bit depth : 16 bits
Compression mode : Lossy
Delay relative to video : 31ms
Stream size : 402 MiB (19%)
Alignment : Split accross interleaves
Interleave, duration : 42 ms (1.00 video frame)
Interleave, preload duration : 500 ms
Audio #2
ID : 2
Format : AC-3
Format/Info : Audio Coding 3
Mode extension : CM (complete main)
Codec ID : 2000
Duration : 2h 26mn
Bit rate mode : Constant
Bit rate : 128 Kbps
Channel(s) : 2 channels
Channel positions : Front: L R
Sampling rate : 48.0 KHz
Bit depth : 16 bits
Compression mode : Lossy
Stream size : 134 MiB (6%)
Alignment : Split accross interleaves
Interleave, duration : 42 ms (1.00 video frame)
Interleave, preload duration : 500 ms

Скриншоты





Последний раз редактировалось: Mixer City (2011-05-28 00:21), всего редактировалось 6 раз(а)

Создавать темы 27-Май-2011 23:55

[Профиль]  [ЛС] 

dragunov

Стаж: 6 лет 11 месяцев

Сообщений: 71

Симпатии: 6

с КИНОМАНА ag

Создавать темы 28-Май-2011 00:55

[Профиль]  [ЛС] 

dragunov

Стаж: 6 лет 11 месяцев

Сообщений: 71

Симпатии: 6

с КИНОМАНА ag

Создавать темы 28-Май-2011 00:56

[Профиль]  [ЛС] 

Aziz1314

Стаж: 7 лет 4 месяца

Сообщений: 331

Симпатии: 13

dragunov
2.10. Ссылаться на другие ресурсы сети ! bt

Создавать темы 28-Май-2011 01:07

[Профиль]  [ЛС] 

Aziz1314

Стаж: 7 лет 4 месяца

Сообщений: 331

Симпатии: 13

dragunov
2.10. Ссылаться на другие ресурсы сети ! bt

Создавать темы 28-Май-2011 01:08

[Профиль]  [ЛС] 

Mixer City ®

Стаж: 6 лет 11 месяцев

Сообщений: 754

Симпатии: 63

dragunov
Оборжатся ag , не нравится не качай!

Создавать темы 28-Май-2011 01:40

[Профиль]  [ЛС] 

Darkia

Стаж: 6 лет 11 месяцев

Сообщений: 29

с КИНОМАНА ag
+1 af ar

Создавать темы 28-Май-2011 09:14

[Профиль]  [ЛС] 

Mixer City ®

Стаж: 6 лет 11 месяцев

Сообщений: 754

Симпатии: 63

Докачать уже можно!

Создавать темы 07-Июн-2011 12:51

[Профиль]  [ЛС] 

masajist

Стаж: 7 лет 10 месяцев

Сообщений: 14

Симпатии: 1

О данке шон :)

Создавать темы 07-Июн-2011 14:42

[Профиль]  [ЛС] 

Mixer City ®

Стаж: 6 лет 11 месяцев

Сообщений: 754

Симпатии: 63

saidroma
пжлста, тока чёт вы медленно качаете, у меня то отдача неплохая

Создавать темы 07-Июн-2011 18:55

[Профиль]  [ЛС] 

Mixer City ®

Стаж: 6 лет 11 месяцев

Сообщений: 754

Симпатии: 63

Всё встал на раздачу, всё пашет

Создавать темы 10-Июн-2011 14:43

[Профиль]  [ЛС] 

Mixer City ®

Стаж: 6 лет 11 месяцев

Сообщений: 754

Симпатии: 63

Всё зарегал торрент, а то вылетал, качаем

Создавать темы 11-Июн-2011 20:53

[Профиль]  [ЛС] 

alik9575

Стаж: 5 лет 10 месяцев

Сообщений: 9

дайте скорость

Создавать темы 29-Мар-2012 23:20

[Профиль]  [ЛС] 

molodec

Стаж: 5 лет 10 месяцев

Сообщений: 20

Симпатии: 7

дайте скорости! Уже месяц как качаю!!!!!!!!!!!!!!!!!!!!!

Создавать темы 29-Окт-2012 19:59

[Профиль]  [ЛС] 

molodec

Стаж: 5 лет 10 месяцев

Сообщений: 20

Симпатии: 7

А всего скачала 12%. Совесть имейте!

Создавать темы 29-Окт-2012 20:01

[Профиль]  [ЛС] 
Показать сообщения:    
Ответить на тему

Текущее время: 18-Дек 17:44

Часовой пояс: UTC + 5



Вы не можете начинать темы
Вы не можете отвечать на сообщения
Вы не можете редактировать свои сообщения
Вы не можете удалять свои сообщения
Вы не можете голосовать в опросах
Вы не можете прикреплять файлы к сообщениям
Вы не можете скачивать файлы