Видеоуроки по С++ [2009/2010 гг.]

Страницы :  1, 2  След.

Ответить на тему
 

рыжий ®

Стаж: 7 лет 5 месяцев

Сообщений: 169

Симпатии: 130

Видео уроки по C++ (автор Teantong)
Производитель: Teantong
Год выпуска: 2009/2010
Язык: Русский
Описание: Пожалуй единственные внятные и хорошие уроки в сети на данный момент по языку C++.
Ко всем видео файлам прилагаются исходники.Несмотря на экзотический видео- и аудио кодеки было решено
выложить файлы в оригинале, так как файлы открываются без проблем.

Список уроков в раздаче:

Урок 1. C++ Первая программа ("Вторая редакция", повышено качество звука-видео .mp4)
Урок 2. С++ Циклы ("Вторая редакция", повышено качество звука-видео .mp4)
Урок 3. C++ Условный оператор ("Вторая редакция", повышено качество звука-видео .mp4)
Урок 4. C++ Пирожки оператор
Урок 5. C++ Арифметические операции
Урок 6. C++ Таблица умножения
Урок 7. C++ Бросание тела под углом к горизонту
Урок 8. C++ Численное интегрирование
Урок 9. C++ Игра Угадай число
Урок 10. C++ Метод половинного деления
Урок 11. C++ Игра угадай число
Урок 12. С++ Классы
Урок 13. C++ Массивы
Урок 14. C++ Двухмерные массивы
Урок 15. C++ Булевая логика
Урок 16. C++ Чтение из файла запись в файл
Урок 17. C++ Пузырьковая сортировка
Урок 18. C++ Поиск числа в отсортированом массиве
Урок 19. C++ vector
Урок 20. C++ Телефоная книга
Урок 21. C++ Школьный метод нахождения чисоа ПИ
Урок 22. C++ Немного об OpenGL
Урок 23. C++ Что будет если долго подбрасывать монетку
Урок 24. C++ Рисование в полярных координатах
Урок 25. C++ Рекурсия
Урок 26. C++ Салфетки
Урок 27. C++ Рекурсия [продолжение]
Урок 28. C++ Разбор арифметических выражений
Урок 29. Пропущена нумерация и потому следующий сразу после 28-го 30-й
Урок 30. C++ Вращающийся куб
Урок 31. C++ Программа печатает саму себя
Урок 32. C++ Красивый спец-эффект
Урок 33. С++ Моделирование гравитации
Урок 34. С++ Рисуем фрактал Мандельброта
Урок 35. С++ Кит и кот
Урок 36. С++ Часы
Урок 37. С++ Моделирование груза на пружине
Урок 38. С++ Моделирование резинки
Урок 39. С++ Обход доски шахматным конем
Урок 40. С++ Обход доски шахматным конем [продолжение]
Урок 41. С++ Волновой алгоритм
Урок 42. С++ Броуновское движение
Урок 43. С++ Работа с мышкой
Урок 44. С++ Рисование трехмерных графиков
Урок 45. С++ Волны
Урок 45. С++ Demo [демонстрация итогов урока - волны]

Скриншоты:






MediaInfo по файлам в раздаче

lesson001_c++|tas-ix.net|

General
Complete name : E:\C++ Lessons[tas-ix.net]\lesson001_c++[tas-ix.net].mp4
Format : MPEG-4
Format profile : Base Media
Codec ID : isom
File size : 53.8 MiB
Duration : 7mn 47s
Overall bit rate : 966 Kbps
Writing application : Lavf52.31.0
Video
ID : 1
Format : MPEG-4 Visual
Format profile : [email protected]
Format settings, BVOP : No
Format settings, QPel : No
Format settings, GMC : No warppoints
Format settings, Matrix : Default (H.263)
Codec ID : 20
Duration : 7mn 46s
Bit rate mode : Variable
Bit rate : 834 Kbps
Width : 852 pixels
Height : 480 pixels
Display aspect ratio : 16:9
Frame rate mode : Variable
Frame rate : 23.976 fps
Minimum frame rate : 2.400 fps
Maximum frame rate : 24.000 fps
Color space : YUV
Chroma subsampling : 4:2:0
Bit depth : 8 bits
Scan type : Progressive
Bits/(Pixel*Frame) : 0.085
Stream size : 46.4 MiB (86%)
Writing library : Lavc52.20.1
Audio
ID : 2
Format : MPEG Audio
Format version : Version 1
Format profile : Layer 3
Mode : Joint stereo
Codec ID : 6B
Duration : 7mn 47s
Bit rate mode : Constant
Bit rate : 128 Kbps
Channel(s) : 2 channels
Sampling rate : 44.1 KHz
Stream size : 7.13 MiB (13%)
Writing library : LAME3.98

lesson002_c++|tas-ix.net|

General
Complete name : E:\C++ Lessons[tas-ix.net]\lesson002_c++[tas-ix.net].mp4
Format : MPEG-4
Format profile : Base Media
Codec ID : isom
File size : 60.3 MiB
Duration : 8mn 25s
Overall bit rate : 1 002 Kbps
Writing application : Lavf52.31.0
Video
ID : 1
Format : MPEG-4 Visual
Format profile : [email protected]
Format settings, BVOP : No
Format settings, QPel : No
Format settings, GMC : No warppoints
Format settings, Matrix : Default (H.263)
Codec ID : 20
Duration : 8mn 25s
Bit rate mode : Variable
Bit rate : 742 Kbps
Width : 852 pixels
Height : 480 pixels
Display aspect ratio : 16:9
Frame rate mode : Variable
Frame rate : 23.956 fps
Minimum frame rate : 2.182 fps
Maximum frame rate : 24.000 fps
Color space : YUV
Chroma subsampling : 4:2:0
Bit depth : 8 bits
Scan type : Progressive
Bits/(Pixel*Frame) : 0.076
Stream size : 44.7 MiB (74%)
Writing library : Lavc52.20.1
Audio
ID : 2
Format : MPEG Audio
Format version : Version 1
Format profile : Layer 3
Mode : Joint stereo
Mode extension : MS Stereo
Codec ID : 6B
Duration : 8mn 25s
Bit rate mode : Constant
Bit rate : 256 Kbps
Channel(s) : 2 channels
Sampling rate : 44.1 KHz
Stream size : 15.4 MiB (26%)
Writing library : LAME3.98

lesson003_c++|tas-ix.net|

General
Complete name : E:\C++ Lessons[tas-ix.net]\lesson003_c++[tas-ix.net].mp4
Format : MPEG-4
Format profile : Base Media
Codec ID : isom
File size : 70.3 MiB
Duration : 7mn 59s
Overall bit rate : 1 231 Kbps
Writing application : Lavf52.31.0
Video
ID : 1
Format : MPEG-4 Visual
Format profile : [email protected]
Format settings, BVOP : No
Format settings, QPel : No
Format settings, GMC : No warppoints
Format settings, Matrix : Default (H.263)
Codec ID : 20
Duration : 7mn 59s
Bit rate mode : Variable
Bit rate : 971 Kbps
Width : 852 pixels
Height : 480 pixels
Display aspect ratio : 16:9
Frame rate mode : Variable
Frame rate : 23.879 fps
Minimum frame rate : 6.000 fps
Maximum frame rate : 24.000 fps
Color space : YUV
Chroma subsampling : 4:2:0
Bit depth : 8 bits
Scan type : Progressive
Bits/(Pixel*Frame) : 0.099
Stream size : 55.5 MiB (79%)
Writing library : Lavc52.20.1
Audio
ID : 2
Format : MPEG Audio
Format version : Version 1
Format profile : Layer 3

lesson004_c++|tas-ix.net|

General
ID : 969448499 (0x39C89C33)
Complete name : E:\C++ Lessons[tas-ix.net]\lesson004_c++[tas-ix.net].ogv
Format : OGG
File size : 18.8 MiB
Duration : 8mn 7s
Overall bit rate : 323 Kbps
recordMyDesktop : 0.3.7.3
Video
ID : 1661947308 (0x630F4DAC)
Format : Theora
Duration : 8mn 8s
Bit rate : 61.9 Kbps
Nominal bit rate : 45.0 Kbps
Width : 448 pixels
Height : 272 pixels
Display aspect ratio : 1.647
Frame rate : 12.000 fps
Bits/(Pixel*Frame) : 0.042
Stream size : 3.60 MiB (19%)
Writing library : libTheora 3.2.1 (UTC 2007-10-25)
Audio
ID : 806227755 (0x300E0F2B)
Format : Vorbis
Format settings, Floor : 1
Duration : 8mn 7s
Bit rate mode : Constant
Bit rate : 240 Kbps
Channel(s) : 1 channel
Sampling rate : 44.1 KHz
Stream size : 14.0 MiB (74%)
Writing library : libVorbis 1.2 (UTC 2007-06-22)

lesson004_c++_bad_version|tas-ix.net|

General
ID : 513758471 (0x1E9F5507)
Complete name : E:\C++ Lessons[tas-ix.net]\lesson004_c++_bad_version[tas-ix.net].ogv
Format : OGG
File size : 34.9 MiB
Duration : 13mn 49s
Overall bit rate : 353 Kbps
recordMyDesktop : 0.3.7.3
Video
ID : 744277389 (0x2C5CC58D)
Format : Theora
Duration : 13mn 49s
Bit rate : 90.3 Kbps
Nominal bit rate : 45.0 Kbps
Width : 320 pixels
Height : 240 pixels
Display aspect ratio : 4:3
Frame rate : 12.000 fps
Bits/(Pixel*Frame) : 0.098
Stream size : 8.94 MiB (26%)
Writing library : libTheora 3.2.1 (UTC 2007-10-25)
Audio
ID : 1430637636 (0x5545CC44)
Format : Vorbis
Format settings, Floor : 1
Duration : 13mn 49s
Bit rate mode : Constant
Bit rate : 240 Kbps
Channel(s) : 1 channel
Sampling rate : 44.1 KHz
Stream size : 23.7 MiB (68%)
Writing library : libVorbis 1.2 (UTC 2007-06-22)

lesson005_c++|tas-ix.net|

General
ID : 1127856580 (0x4339B9C4)
Complete name : E:\C++ Lessons[tas-ix.net]\lesson005_c++[tas-ix.net].ogv
Format : OGG
File size : 19.7 MiB
Duration : 8mn 26s
Overall bit rate : 326 Kbps
recordMyDesktop : 0.3.7.3
Video
ID : 2115038793 (0x7E10EE49)
Format : Theora
Duration : 8mn 26s
Bit rate : 64.6 Kbps
Nominal bit rate : 45.0 Kbps
Width : 448 pixels
Height : 272 pixels
Display aspect ratio : 1.647
Frame rate : 12.000 fps
Bits/(Pixel*Frame) : 0.044
Stream size : 3.90 MiB (20%)
Writing library : libTheora 3.2.1 (UTC 2007-10-25)
Audio
ID : 1047740963 (0x3E734223)
Format : Vorbis
Format settings, Floor : 1
Duration : 8mn 26s
Bit rate mode : Constant
Bit rate : 240 Kbps
Channel(s) : 1 channel
Sampling rate : 44.1 KHz
Stream size : 14.5 MiB (74%)
Writing library : libVorbis 1.2 (UTC 2007-06-22)

lesson006_c++|tas-ix.net|

General
ID : 892595761 (0x3533EE31)
Complete name : E:\C++ Lessons[tas-ix.net]\lesson006_c++[tas-ix.net].ogv
Format : OGG
File size : 14.1 MiB
Duration : 6mn 9s
Overall bit rate : 320 Kbps
recordMyDesktop : 0.3.7.3
Video
ID : 102139560 (0x61686A8)
Format : Theora
Duration : 6mn 9s
Bit rate : 58.4 Kbps
Nominal bit rate : 45.0 Kbps
Width : 448 pixels
Height : 272 pixels
Display aspect ratio : 1.647
Frame rate : 12.000 fps
Bits/(Pixel*Frame) : 0.040
Stream size : 2.57 MiB (18%)
Writing library : libTheora 3.2.1 (UTC 2007-10-25)
Audio
ID : 436250442 (0x1A00A74A)
Format : Vorbis
Format settings, Floor : 1
Duration : 6mn 9s
Bit rate mode : Constant
Bit rate : 240 Kbps
Channel(s) : 1 channel
Sampling rate : 44.1 KHz
Stream size : 10.6 MiB (75%)
Writing library : libVorbis 1.2 (UTC 2007-06-22)

lesson007_c++|tas-ix.net|

General
ID : 279275503 (0x10A567EF)
Complete name : E:\C++ Lessons[tas-ix.net]\lesson007_c++[tas-ix.net].ogv
Format : OGG
File size : 23.6 MiB
Duration : 10mn 13s
Overall bit rate : 323 Kbps
recordMyDesktop : 0.3.7.3
Video
ID : 1265801523 (0x4B729933)
Format : Theora
Duration : 10mn 13s
Bit rate : 61.7 Kbps
Nominal bit rate : 45.0 Kbps
Width : 448 pixels
Height : 240 pixels
Display aspect ratio : 1.867
Frame rate : 12.000 fps
Bits/(Pixel*Frame) : 0.048
Stream size : 4.51 MiB (19%)
Writing library : libTheora 3.


Последний раз редактировалось: рыжий (2011-06-07 22:03), всего редактировалось 6 раз(а)

Создавать темы 28-Май-2011 20:51

[Профиль]  [ЛС] 

Fertel_UseR

Стаж: 6 лет 6 месяцев

Сообщений: 6

SeaGer скорость раздачи увеличьте пожалуйста! ac

Создавать темы 28-Май-2011 22:35

[Профиль]  [ЛС] 

5146232

Стаж: 6 лет 8 месяцев

Сообщений: 5

Раздача будет?

Создавать темы 07-Июн-2011 03:49

[Профиль]  [ЛС] 

рыжий ®

Стаж: 7 лет 5 месяцев

Сообщений: 169

Симпатии: 130

раздача возобновится скорее всего сегодня...

Создавать темы 07-Июн-2011 09:22

[Профиль]  [ЛС] 

5146232

Стаж: 6 лет 8 месяцев

Сообщений: 5

Ок ждёмсс

Создавать темы 07-Июн-2011 10:09

[Профиль]  [ЛС] 

5146232

Стаж: 6 лет 8 месяцев

Сообщений: 5

Даёш раздачу?!

Создавать темы 07-Июн-2011 20:11

[Профиль]  [ЛС] 

Feruz_22

Стаж: 6 лет 3 месяца

Сообщений: 37

Симпатии: 6

Сиды добавьте скорости пожалуйста !!!!!! ac

Создавать темы 25-Авг-2011 06:48

[Профиль]  [ЛС] 

4b00s

Стаж: 6 лет 8 месяцев

Сообщений: 51

Симпатии: 12

скачал) думаю зря) может и пригодится)

Создавать темы 14-Дек-2011 10:07

[Профиль]  [ЛС] 

dimanjon

Стаж: 5 лет 8 месяцев

Сообщений: 107

Симпатии: 9

Автору огромный респект

Создавать темы 14-Мар-2012 16:14

[Профиль]  [ЛС] 

Nividimka

Стаж: 5 лет 6 месяцев

Сообщений: 38

Спасибо,за уроки.

Создавать темы 17-Апр-2012 15:08

[Профиль]  [ЛС] 

temirikov

Стаж: 5 лет 7 месяцев

Сообщений: 16

Всем привет, подскажите пожалуйста на какой проге лучше писать на c++, я Borland недавно скачал, думал в этом курсе будет сказано, какую прогу использует автор, может вы знаете?

Создавать темы 28-Апр-2012 19:02

[Профиль]  [ЛС] 

david

Стаж: 7 лет 4 месяца

Сообщений: 467

Симпатии: 12

Всем привет, подскажите пожалуйста на какой проге лучше писать на c++, я Borland недавно скачал, думал в этом курсе будет сказано, какую прогу использует автор, может вы знаете?
какая разница на чем писать ?
могу сказать ,что проги от Борланда офигенно глючат на висте и семерке.
А на счет студии -- самый крутой вариант - NotePad++ либо DevCPP.
меня Ява приучила к тому, что самый крутой вариант это прогить из коммандной строки)) --
потому что когда на сервере начинается кончаться память(загрузка в районе 97%) то за студию типа борланда не только от коллег можно получить, но и от начальства получить.
Зачем лезть с явой на сервер ? например чтобы 12к транзакций разложить )) либо найти разницу в двух матричных наборах данных
жаль, что анлим только с 1-го числа врубится (( тогда на 2 мегабит и скачаю ))

Создавать темы 28-Апр-2012 22:00

[Профиль]  [ЛС] 

david

Стаж: 7 лет 4 месяца

Сообщений: 467

Симпатии: 12

чет скорость не айс, мож еще пара сидеров подвалит ?))

Создавать темы 01-Май-2012 10:52

[Профиль]  [ЛС] 

Bebeto

Стаж: 5 лет 5 месяцев

Сообщений: 1

привет всем!! я хотел стат программистом для стат лучше программистом что от мня потребляться какие проги лучше......

Создавать темы 01-Май-2012 12:10

[Профиль]  [ЛС] 

david

Стаж: 7 лет 4 месяца

Сообщений: 467

Симпатии: 12

привет всем!! я хотел стат программистом для стат лучше программистом что от мня потребляться какие проги лучше......
ну сперва смени промт на лингво или google Translater -- а потом читай вышмат и теорию игр, когда дойдешь до решения 5-мерных матриц в уме, станешь самым лучшим программистом ... потому как даже я такого не умею

Создавать темы 02-Май-2012 23:25

[Профиль]  [ЛС] 
Показать сообщения:    
Ответить на тему

Текущее время: 18-Окт 14:27

Часовой пояс: UTC + 5



Вы не можете начинать темы
Вы не можете отвечать на сообщения
Вы не можете редактировать свои сообщения
Вы не можете удалять свои сообщения
Вы не можете голосовать в опросах
Вы не можете прикреплять файлы к сообщениям
Вы не можете скачивать файлы