Чудаки 3.5 / Jackass 3.5 (Джефф Треймейн / Jeff Tremaine) [2011 г., документальный, комедия, DVDRip]

Страницы :  1, 2  След.

Ответить на тему
 

Gelios ®

Стаж: 6 лет 9 месяцев

Сообщений: 12

Симпатии: 2

Чудаки 3.5 / Jackass 3.5
Год выпуска: 2011
Страна: США
Жанр: документальный, комедия
Продолжительность: 01:21:22
Перевод: Любительский (одноголосый)
Режиссер: Джефф Треймейн / Jeff Tremaine
В ролях: Джонни Ноксвил, Бэм Марджера, Райан Данн, Стив-О, Джейсон Акуна, Престон Лэси, Крис Понтиус, Эрен МакГехи, Дэйв Инглэнд, Лумис Фол
Описание: Документальный фильм «Чудаки 3.5» – продолжение серии, начавшейся картиной «Чудаки», и рассказывающей об исполнении различных шутливых, порой очень опасных, самоистязающих, а порой просто глупых трюков, выполняемых командой энтузиастов. На этот раз – все вновь, как и прежде и гораздо больше. Еще более возмутительные трюки, еще больше шуток и погромов, включая достоверное столкновение одного из создателей картины Стива-О с каймановой черепахой и другого участника проекта Криса Понтиуса с его невероятным лесным дятлом. Кроме того, каждый зритель сможет попасть за кулисы шоу «Чудаки 3.5» и увидеть сумасшедшую жизнь создателей фильма.

Media Info

Format : AVI
Format/Info : Audio Video Interleave
File size : 1.36 GiB
Duration : 1h 21mn
Overall bit rate : 2 401 Kbps
Movie name : Chudaki.3.5.DVDRip
Director : Release Group [K^I^K Team]
Writing application : VirtualDubMod 1.5.10.2 (build 2540/release)
Copyright : http://kikteam.net
Video
ID : 0
Format : MPEG-4 Visual
Format profile : Advanced [email protected]
Format settings, BVOP : Yes
Format settings, QPel : No
Format settings, GMC : No warppoints
Format settings, Matrix : Default (MPEG)
Codec ID : XVID
Codec ID/Hint : XviD
Duration : 1h 21mn
Bit rate : 1 944 Kbps
Width : 720 pixels
Height : 400 pixels
Display aspect ratio : 16:9
Frame rate : 25.000 fps
Color space : YUV
Chroma subsampling : 4:2:0
Bit depth : 8 bits
Scan type : Progressive
Bits/(Pixel*Frame) : 0.270
Stream size : 1.10 GiB (81%)
Writing library : XviD 1.2.1 (UTC 2008-12-04)
Audio
ID : 1
Format : AC-3
Format/Info : Audio Coding 3
Mode extension : CM (complete main)
Codec ID : 2000
Duration : 1h 21mn
Bit rate mode : Constant
Bit rate : 448 Kbps
Channel(s) : 6 channels
Channel positions : Front: L C R, Side: L R, LFE
Sampling rate : 48.0 KHz
Stream size : 261 MiB (19%)
Alignment : Split accross interleaves
Interleave, duration : 40 ms (1.00 video frame)
Interleave, preload duration : 500 ms
Качество: DVDRip
Формат: AVI
Видео кодек: XviD
Аудио кодек: AC3
Видео: 720x400 (1.80:1), 25 fps, 1 944 Kbps
Аудио: 48 kHz, AC3 ~448.00 kbps

Скриншоты





Последний раз редактировалось: Gelios (2011-06-08 14:29), всего редактировалось 1 раз

Создавать темы 07-Июн-2011 20:31

[Профиль]  [ЛС] 

lyuta

Стаж: 6 лет 9 месяцев

Сообщений: 193

Симпатии: 3

че такое? че не раздаем?

Создавать темы 07-Июн-2011 20:32

[Профиль]  [ЛС] 

lyuta

Стаж: 6 лет 9 месяцев

Сообщений: 193

Симпатии: 3

в чем дело рудик?

Создавать темы 07-Июн-2011 20:32

[Профиль]  [ЛС] 

lyuta

Стаж: 6 лет 9 месяцев

Сообщений: 193

Симпатии: 3

качаем!)) СПС!

Создавать темы 07-Июн-2011 20:33

[Профиль]  [ЛС] 

Gelios ®

Стаж: 6 лет 9 месяцев

Сообщений: 12

Симпатии: 2

в чем дело рудик?
чё за рудик ??

Создавать темы 07-Июн-2011 20:38

[Профиль]  [ЛС] 

lyuta

Стаж: 6 лет 9 месяцев

Сообщений: 193

Симпатии: 3

в чем дело рудик?
чё за рудик ??
в чем дэло рудик? о спорте тамик о спорте ag тамик и рудик! из даешь молодежь! ag

Создавать темы 07-Июн-2011 20:54

[Профиль]  [ЛС] 

Gelios ®

Стаж: 6 лет 9 месяцев

Сообщений: 12

Симпатии: 2

я раздаю со скоростью 60 Кбит/сек !

Создавать темы 08-Июн-2011 11:17

[Профиль]  [ЛС] 

Euroasia

Стаж: 6 лет 7 месяцев

Сообщений: 24

Надо в названии фильма, букву Ч, на М сменить)

Создавать темы 08-Июн-2011 11:18

[Профиль]  [ЛС] 

ziyod

Стаж: 7 лет 8 месяцев

Сообщений: 367

Симпатии: 60

lyuta оверпостом хотел занятся???

Создавать темы 08-Июн-2011 11:18

[Профиль]  [ЛС] 

Black689

Стаж: 6 лет 10 месяцев

Сообщений: 18

Симпатии: 1

Euroasia???
Че за безобразие? свои задние мысли при се держи.

Создавать темы 08-Июн-2011 11:35

[Профиль]  [ЛС] 

Gelios ®

Стаж: 6 лет 9 месяцев

Сообщений: 12

Симпатии: 2

ziyod
почему не недооформлено ?? ошибку скажи я исправлю !??

Создавать темы 08-Июн-2011 12:14

[Профиль]  [ЛС] 

ziyod

Стаж: 7 лет 8 месяцев

Сообщений: 367

Симпатии: 60

Видео: 720x400 (1.80:1), 25 fps,
не хватает видео битрейт

Создавать темы 08-Июн-2011 12:31

[Профиль]  [ЛС] 

Euroasia

Стаж: 6 лет 7 месяцев

Сообщений: 24

Euroasia???
Че за безобразие? свои задние мысли при се держи.
Безобразие как раз таки в этом фильме...

Создавать темы 08-Июн-2011 16:14

[Профиль]  [ЛС] 

Honda

Стаж: 7 лет

Сообщений: 93

Симпатии: 1

любят они по половине делить ))))

Создавать темы 08-Июн-2011 16:17

[Профиль]  [ЛС] 

Arnold

Стаж: 6 лет 7 месяцев

Сообщений: 149

Симпатии: 5

хотите потный коктейль? at az

Создавать темы 08-Июн-2011 23:06

[Профиль]  [ЛС] 
Показать сообщения:    
Ответить на тему

Текущее время: 18-Ноя 17:11

Часовой пояс: UTC + 5



Вы не можете начинать темы
Вы не можете отвечать на сообщения
Вы не можете редактировать свои сообщения
Вы не можете удалять свои сообщения
Вы не можете голосовать в опросах
Вы не можете прикреплять файлы к сообщениям
Вы не можете скачивать файлы