Лучшие куски Comedy Club. Александр А. Ревва [2008 г., Юмор, тевизионное шоу, DVDRip]

Ответить на тему
 

Mansurbek84 ®

Стаж: 6 лет 11 месяцев

Сообщений: 80

Симпатии: 8

Лучшие куски Comedy Club. Александр А. Ревва

Год выпуска: 2008
Страна: Россия, ТНТ / MusicTrade
Жанр: Юмор, тевизионное шоу

Продолжительность: 01:30:49
Описание: Родился в очереди за пенсией. В детстве был послушным мальчиком, в юности послушным девочкой. Получил высшее техническое образование, защитил диссертацию, работал над
изобретением лазерного перфолоскопа, свихнулся, начал показывать миниатюры про бабушек, попал в Comedy Club, прославился. Разносторонний человек: помимо юмора любит спать,
есть, лежать и сидеть. Имеет домашнее животное - камень, зовут Сергей. В общем большой человек, который прославился тем, что сказал Стивену Спилбергу: "Фак ю, Спилберг!";

Качество: DVDRip
Формат: AVI
Видео кодек: H.26x
Аудио кодек: AC3
Видео: 720x560, 25.000 fps, ~ 1500 Kbps, 0.149 bit/pix
Аудио: AC3, 48.0 Khz, 384 kbps, 2 channel

Содержание

наш алфавит самый эротический
- случай в Голливуде (Гарик Харламов)
- бабушка театрального актера ч.1 (Гарик Харламов)
- в самолете (Гарик Харламов, Тимур Батрутдинов)
- сказка "Богатырь и чудище поганое" (Вадим Галыгин)
- стриптиз от Саши-Маугли (Вадим Галыгин)
- семейная ссора (Тимур Батрутдинов)
- чечетка (Тимур Батрутдинов)
- секс в СССР (Тимур Батрутдинов)
- чушь (Гарик Харламов)
- М. С. Боярский дома с женой (Тимур Родригес)
- отец и сын (Вадим Галыгин)
- интервью с поэтом-плагиатором (Гарик Харламов)
- случай с жонглерами (Тимур Батрутдинов)
- мим устраивается на работу (Тимур Батрутдинов)
- на светофоре (Тимур Батрутдинов)
- свадьба панков (Тимур Батрутдинов, Алексей Лихницкий)
- разговор на лавочке (Тимур Родригес)
- отрывок из фильма "Крестный отец" (Тимур Батрутдинов, Михаил Лучкевич)
- Николай Расторгуев и Сергей Безруков отдыхают (Гарик Харламов)
- человек на остановке
- если бы Вы были дома, а предки ходили на дискотеки (Павел Воля)
- бабка-сторож и студент в огороде (Гавр)
- звонок Андрея (Гарик Харламов)
- хвастунишки (Гарик Харламов, Тимур Батрутдинов)
- черный маг Геннадий (Тимур Батрутдинов)

Мед.инфо

General
Complete name : \А.Ревва.Лучшее..avi
Format : AVI
Format/Info : Audio Video Interleave
File size : 1.20 GiB
Duration : 1h 30mn
Overall bit rate : 1 894 Kbps
Writing application : VirtualDubMod 1.6.0.0 SURROUND (build 2560/release)
Writing library : Compiled by -=Mitrofan=- 07.2010
Video #0
ID : 0
Format : AVC
Format/Info : Advanced Video Codec
Format profile : [email protected]
Format settings, CABAC : Yes
Format settings, ReFrames : 5 frames
Codec ID : H264
Duration : 1h 30mn
Bit rate : 1 500 Kbps
Width : 720 pixels
Height : 560 pixels
Display aspect ratio : 1.286
Frame rate : 25.000 fps
Resolution : 24 bits
Colorimetry : 4:2:0
Scan type : Progressive
Bits/(Pixel*Frame) : 0.149
Stream size : 974 MiB (79%)
Writing library : x264 core 94 r1583kMod 7608d73
Encoding settings : cabac=1 / ref=5 / deblock=1:-1:-1 / analyse=0x3:0x133 / me=umh / subme=7 / psy=1 / psy_rd=1.00:0.00 / mixed_ref=1 / me_range=16 / chroma_me=1 / trellis=2 / 8x8dct=1 / cqm=0 / deadzone=21,11 / fast_pskip=1 / chroma_qp_offset=-2 / threads=2 / sliced_threads=1 / slices=2 / nr=0 / decimate=1 / interlaced=0 / constrained_intra=0 / bframes=3 / b_pyramid=2 / b_adapt=2 / b_bias=0 / direct=3 / weightb=1 / weightp=2 / keyint=300 / keyint_min=20 / scenecut=40 / intra_refresh=0 / rc=2pass / mbtree=0 / bitrate=1500 / ratetol=1.0 / qcomp=0.60 / qpmin=10 / qpmax=51 / qpstep=4 / cplxblur=20.0 / qblur=0.5 / ip_ratio=1.40 / pb_ratio=1.30 / aq=1:1.00
Audio #1
ID : 1
Format : AC-3
Format/Info : Audio Coding 3
Codec ID : 2000
Duration : 1h 30mn
Bit rate mode : Constant
Bit rate : 384 Kbps
Channel(s) : 2 channels
Channel positions : L R
Sampling rate : 48.0 KHz
Stream size : 249 MiB (20%)
Alignment : Split accross interleaves
Interleave, duration : 40 ms (1.00 video frame)
Interleave, preload duration : 500 ms

Скриншоты





Последний раз редактировалось: Mansurbek84 (2011-06-11 19:25), всего редактировалось 1 раз

Создавать темы 11-Июн-2011 18:28

[Профиль]  [ЛС] 

Mansurbek84 ®

Стаж: 6 лет 11 месяцев

Сообщений: 80

Симпатии: 8

Скачайте до понедельника.

Создавать темы 11-Июн-2011 18:30

[Профиль]  [ЛС] 

arimanz

Стаж: 5 лет 6 месяцев

Сообщений: 58

Давай пацаны качаем! Не сваливайте только с раздачи!

Создавать темы 08-Май-2012 21:02

[Профиль]  [ЛС] 

arimanz

Стаж: 5 лет 6 месяцев

Сообщений: 58

Давай пацаны где СИдеры? КАЧАЕМ!

Создавать темы 10-Май-2012 17:11

[Профиль]  [ЛС] 

arimanz

Стаж: 5 лет 6 месяцев

Сообщений: 58

СПАСИБО всем-кто раздавал!!!!

Создавать темы 12-Май-2012 13:42

[Профиль]  [ЛС] 

zbz

Стаж: 5 лет 6 месяцев

Сообщений: 35

Симпатии: 4

Плеазе, дайте скорость люди добрые

Создавать темы 06-Сен-2012 09:48

[Профиль]  [ЛС] 

baxabestboy95

Стаж: 6 лет 4 месяца

Сообщений: 72

Симпатии: 3

скорости народ пожалуйста !!!!Скачан: 133 раз куда все разбежались ???

Создавать темы 14-Сен-2012 22:03

[Профиль]  [ЛС] 
Показать сообщения:    
Ответить на тему

Текущее время: 21-Окт 15:08

Часовой пояс: UTC + 5



Вы не можете начинать темы
Вы не можете отвечать на сообщения
Вы не можете редактировать свои сообщения
Вы не можете удалять свои сообщения
Вы не можете голосовать в опросах
Вы не можете прикреплять файлы к сообщениям
Вы не можете скачивать файлы