Обряд / The Rite (Микаэль Хафстрем) [2011 г., Ужасы, триллер, драма, HDRip] | ЛИЦЕНЗИЯ!

Страницы :  1, 2  След.

Ответить на тему
 

Mixer City ®

Стаж: 6 лет 8 месяцев

Сообщений: 754

Симпатии: 63

Обряд / The Rite--
Год выпуска :: 2011
Страна :: США
Жанр :: Ужасы, триллер, драма
Продолжительность :: 113 мин
Перевод :: Профессиональный (многоголосый, закадровый) | ЛИЦЕНЗИЯ!--Режиссер :: Микаэль Хафстрем-В ролях :: Энтони Хопкинс, Колин О’Донохью, Алиси Брага, Киаран Хиндс, Тоби Джонс, Рутгер Хауэр, Марта Гастини, Мария Грация Кучинотта, Арианна Веронези, Андре Каллиджари и др.-Описание ::
Фильм снят по мотивам реальных событий.
Скептически настроенный студент-семинарист Майкл Ковак который против своего желания посещает школу экзорцистов в Ватикане. Там в Риме он встречает священника отца Лукаса, который открывает ему темную сторону его веры.--Рейтинги :: КиноПоиск: 5.890 (1 521 голосов) ; IMDB: 6.1/10 (17 865 голосов)--Качество :: HDRip
Формат :: AVI
Видео кодек :: DivX
Аудио кодек :: AC3
Видео :: 720x304
Аудио :: 6 Ch--И не забывайте про "Спасибо" и "+"
--

Media Info

General
Complete name : The.Rite.2011.DVDRip.avi
Format : AVI
Format/Info : Audio Video Interleave
File size : 1.37 GiB
Duration : 1h 53mn
Overall bit rate : 1 723 Kbps
Writing application : VirtualDubMod 1.5.4.1 (build 2178/release)
Writing library : VirtualDubMod build 2178/release
Video
ID : 0
Format : MPEG-4 Visual
Format profile : Advanced [email protected]
Format settings, BVOP : 2
Format settings, QPel : No
Format settings, GMC : No warppoints
Format settings, Matrix : Custom
Codec ID : XVID
Codec ID/Hint : XviD
Duration : 1h 53mn
Bit rate : 1 330 Kbps
Width : 720 pixels
Height : 304 pixels
Display aspect ratio : 2.35:1
Frame rate : 23.976 fps
Color space : YUV
Chroma subsampling : 4:2:0
Bit depth : 8 bits
Scan type : Progressive
Compression mode : Lossy
Bits/(Pixel*Frame) : 0.253
Stream size : 1.06 GiB (77%)
Writing library : XviD 58
Audio
ID : 1
Format : AC-3
Format/Info : Audio Coding 3
Mode extension : CM (complete main)
Codec ID : 2000
Duration : 1h 53mn
Bit rate mode : Constant
Bit rate : 384 Kbps
Channel(s) : 6 channels
Channel positions : Front: L C R, Side: L R, LFE
Sampling rate : 48.0 KHz
Bit depth : 16 bits
Compression mode : Lossy
Stream size : 312 MiB (22%)
Alignment : Split accross interleaves
Interleave, duration : 42 ms (1.00 video frame)
Interleave, preload duration : 500 ms

Скриншоты





Последний раз редактировалось: Mixer City (2011-08-05 05:43), всего редактировалось 7 раз(а)

Создавать темы 16-Июл-2011 19:13

[Профиль]  [ЛС] 

Mixer City ®

Стаж: 6 лет 8 месяцев

Сообщений: 754

Симпатии: 63

В пункте Список файлов - опечатка, по правде там должно быть HDRip, а не DVD, просто люди уже качают, так что менять не будем.

Создавать темы 16-Июл-2011 20:48

[Профиль]  [ЛС] 

Wasabik

Стаж: 6 лет 3 месяца

Сообщений: 58

Симпатии: 1

скорость будет??? скорость АП! ay заранее спасибо

Создавать темы 17-Июл-2011 22:27

[Профиль]  [ЛС] 

Mixer City ®

Стаж: 6 лет 8 месяцев

Сообщений: 754

Симпатии: 63

скорость будет??? скорость АП! заранее спасибо
Сидов: 16 [ 389 KB/s ] Личеров: 16 [ 315 KB/s ]
куда ещё?

Создавать темы 17-Июл-2011 22:29

[Профиль]  [ЛС] 

Mrblack

Стаж: 6 лет 3 месяца

Сообщений: 247

Симпатии: 52

ето кино или мултик ?

Создавать темы 17-Июл-2011 23:07

[Профиль]  [ЛС] 

Mixer City ®

Стаж: 6 лет 8 месяцев

Сообщений: 754

Симпатии: 63

ето кино или мултик ?
глаза разуй

Создавать темы 17-Июл-2011 23:38

[Профиль]  [ЛС] 

dimabek

Стаж: 6 лет 7 месяцев

Сообщений: 87

Симпатии: 13

это дубляж ?

Создавать темы 17-Июл-2011 23:59

[Профиль]  [ЛС] 

Wasabik

Стаж: 6 лет 3 месяца

Сообщений: 58

Симпатии: 1

Mixer City
у меня в клиенте показывает сидов 6(8) пиров 7(15)
скорость скачки 16 кб\с, могу качать со скор. 120 кб есть разница?

Создавать темы 18-Июл-2011 00:03

[Профиль]  [ЛС] 

Mixer City ®

Стаж: 6 лет 8 месяцев

Сообщений: 754

Симпатии: 63

dimabek
читай выше: многоголосое закадровое профессиональное (лицензия) это фильм не будет дублироваться
Mixer City у меня в клиенте показывает сидов 6(8) пиров 7(15) скорость скачки 16 кб\с, могу качать со скор. 120 кб есть разница?
на каждого качающего по разному
я вот например у одного чела музон качаю весь день, со скоростью 7 кб\c и что делать, терпеть
как скачают побольше челов скорость возрастёт
Добавлено спустя 1 час 28 минут 8 секунд:
Ладно я спать, тут и без меня дораздадут, присоеденюсь заутро


Последний раз редактировалось: Mixer City (2011-07-18 02:06), всего редактировалось 1 раз

Создавать темы 18-Июл-2011 02:06

[Профиль]  [ЛС] 

bexruz19

Стаж: 6 лет 7 месяцев

Сообщений: 2

супер филм ay

Создавать темы 18-Июл-2011 11:21

[Профиль]  [ЛС] 

da

Стаж: 6 лет 8 месяцев

Сообщений: 95

Симпатии: 7

Фильм хароший есть над чем призадуматься...

Создавать темы 19-Июл-2011 00:54

[Профиль]  [ЛС] 

armal

Стаж: 7 лет 2 месяца

Сообщений: 60

спасибо

Создавать темы 21-Июл-2011 22:22

[Профиль]  [ЛС] 

tplink

Стаж: 6 лет 6 месяцев

Сообщений: 81

Симпатии: 10

СПС ay

Создавать темы 24-Июл-2011 18:39

[Профиль]  [ЛС] 

sapfir

Стаж: 6 лет 4 месяца

Сообщений: 49

скачал, но по мне так до Константина не тянет. но фильм хороший.

Создавать темы 25-Июл-2011 00:35

[Профиль]  [ЛС] 

Cortex

Стаж: 6 лет 1 месяц

Сообщений: 42

Симпатии: 1

благадарю фильм отличный ab

Создавать темы 04-Авг-2011 15:52

[Профиль]  [ЛС] 
Показать сообщения:    
Ответить на тему

Текущее время: 22-Авг 06:31

Часовой пояс: UTC + 5



Вы не можете начинать темы
Вы не можете отвечать на сообщения
Вы не можете редактировать свои сообщения
Вы не можете удалять свои сообщения
Вы не можете голосовать в опросах
Вы не можете прикреплять файлы к сообщениям
Вы не можете скачивать файлы