Меняющие реальность / The Adjustment Bureau (Джордж Нолфи) [2011 г., Триллер, мелодрама, HDRip] | ЛИЦЕНЗИЯ!

Страницы :  1, 2, 3, 4  След.

Ответить на тему
 

Mixer City ®

Стаж: 6 лет 9 месяцев

Сообщений: 754

Симпатии: 63

Меняющие реальность / The Adjustment Bureau--
Год выпуска :: 2011
Страна :: США
Жанр :: Триллер, мелодрама
Продолжительность :: 105 мин
Перевод :: Профессиональный (полное дублирование) | ЛИЦЕНЗИЯ!
Бюджет :: $51 млн.--Режиссер :: Джордж Нолфи-В ролях :: Мэтт Деймон, Эмили Блант, Джон Слеттери, Теренс Стэмп, Энтони Мэки, Шохре Агхдашлу, Майкл Келли, Энтони Руививар, Брайан Хэли, Дэвид Алан Баше и др.-Описание ::
Конгрессмен Дэвид Норрис стремительно поднимается по карьерной лестнице. Где-то по пути он встречает красавицу-балерину Элизу, но не может понять, почему никак не может познакомиться с девушкой поближе — постоянно возникают странные обстоятельства, благодаря которым герои всё время отделены друг от друга.--Рейтинги :: КиноПоиск: 7.447 (7 459 голосов) ; IMDB: 7.1/10 (15 754 голосов)--Качество :: HDRip
Формат :: AVI
Видео кодек :: DivX
Аудио кодек :: AC3
Видео :: 720x384
Аудио :: 6 Ch--И не забывайте про "Спасибо" и "+"
--

Media Info

General
Complete name : Adjustment.Bureau.2011.HDRip.avi
Format : AVI
Format/Info : Audio Video Interleave
File size : 1.37 GiB
Duration : 1h 45mn
Overall bit rate : 1 850 Kbps
Writing application : VirtualDubMod 1.5.4.1 (build 2178/release)
Writing library : VirtualDubMod build 2178/release
Video
ID : 0
Format : MPEG-4 Visual
Format profile : Advanced [email protected]
Format settings, BVOP : 1
Format settings, QPel : No
Format settings, GMC : No warppoints
Format settings, Matrix : Default (MPEG)
Codec ID : XVID
Codec ID/Hint : XviD
Duration : 1h 45mn
Bit rate : 1 457 Kbps
Width : 720 pixels
Height : 384 pixels
Display aspect ratio : 1.875
Frame rate : 23.976 fps
Color space : YUV
Chroma subsampling : 4:2:0
Bit depth : 8 bits
Scan type : Progressive
Compression mode : Lossy
Bits/(Pixel*Frame) : 0.220
Stream size : 1.08 GiB (79%)
Writing library : XviD 1.2.1 (UTC 2008-12-04)
Audio
ID : 1
Format : AC-3
Format/Info : Audio Coding 3
Mode extension : CM (complete main)
Codec ID : 2000
Duration : 1h 45mn
Bit rate mode : Constant
Bit rate : 384 Kbps
Channel(s) : 6 channels
Channel positions : Front: L C R, Side: L R, LFE
Sampling rate : 48.0 KHz
Bit depth : 16 bits
Compression mode : Lossy
Stream size : 290 MiB (21%)
Alignment : Split accross interleaves
Interleave, duration : 42 ms (1.00 video frame)
Interleave, preload duration : 500 ms

Скриншоты





Последний раз редактировалось: Mixer City (2011-09-12 10:09), всего редактировалось 8 раз(а)

Создавать темы 16-Июл-2011 20:41

[Профиль]  [ЛС] 

x6

Стаж: 6 лет 8 месяцев

Сообщений: 171

Симпатии: 3

Mixer City залей дорожку плиз отдельно!

_________________
Подпись отключена за нарушение правил форума

Создавать темы 16-Июл-2011 21:14

[Профиль]  [ЛС] 

Mixer City ®

Стаж: 6 лет 9 месяцев

Сообщений: 754

Симпатии: 63

x6
пока нету времени, да и прога та под вирусным гнётом пропала, заархивируй и кинь мне её, постараюсь дорогу залить
Добавлено спустя 11 часов 53 минуты 14 секунд:
Неплохой фильмец


Последний раз редактировалось: Mixer City (2011-07-17 12:49), всего редактировалось 1 раз

Создавать темы 17-Июл-2011 12:49

[Профиль]  [ЛС] 

x6

Стаж: 6 лет 8 месяцев

Сообщений: 171

Симпатии: 3

Mixer City в лс кинул ссылку с тас икс
сам фильм у меня есть только звук там отстой

_________________
Подпись отключена за нарушение правил форума

Создавать темы 17-Июл-2011 13:24

[Профиль]  [ЛС] 

Mixer City ®

Стаж: 6 лет 9 месяцев

Сообщений: 754

Симпатии: 63

junior
а Media Info зачем тогда я выкладываю

Создавать темы 17-Июл-2011 14:07

[Профиль]  [ЛС] 

Айбек89

Стаж: 7 лет 2 месяца

Сообщений: 6

спс

Создавать темы 17-Июл-2011 19:38

[Профиль]  [ЛС] 

odilbek85

Стаж: 6 лет 6 месяцев

Сообщений: 29

Симпатии: 1

да фильм good

Создавать темы 17-Июл-2011 20:05

[Профиль]  [ЛС] 

bexruz19

Стаж: 6 лет 9 месяцев

Сообщений: 2

супер филм

Создавать темы 18-Июл-2011 11:20

[Профиль]  [ЛС] 

рыжий

Стаж: 7 лет 5 месяцев

Сообщений: 169

Симпатии: 130

спасибо релизеру! зачетный фильмец, даже мозг немного размял ab игра актеров на уровне, сюжет и сценарий +5.

Создавать темы 18-Июл-2011 13:51

[Профиль]  [ЛС] 

Mixer City ®

Стаж: 6 лет 9 месяцев

Сообщений: 754

Симпатии: 63

рыжий
во во и я о том же, обожаю этих актёров

Создавать темы 18-Июл-2011 14:06

[Профиль]  [ЛС] 

warmen_94

Стаж: 7 лет 4 месяца

Сообщений: 25

Симпатии: 1

Отличный фильм,спс)

Создавать темы 18-Июл-2011 17:07

[Профиль]  [ЛС] 

Warhammer

Стаж: 7 лет

Сообщений: 21

Симпатии: 1

Дайте газу народ

Создавать темы 19-Июл-2011 07:52

[Профиль]  [ЛС] 

Dalila

Стаж: 6 лет 8 месяцев

Сообщений: 65

хороший фильм, хотя местами скучноват. понравилась сама идея и конец)

Создавать темы 19-Июл-2011 17:43

[Профиль]  [ЛС] 

stupefy

Стаж: 6 лет 8 месяцев

Сообщений: 2

яхши фильм болалар!

Создавать темы 20-Июл-2011 13:52

[Профиль]  [ЛС] 

Mixer City ®

Стаж: 6 лет 9 месяцев

Сообщений: 754

Симпатии: 63

stupefy
пиши по русски в следующий раз, правила такие

Создавать темы 20-Июл-2011 13:56

[Профиль]  [ЛС] 
Показать сообщения:    
Ответить на тему

Текущее время: 18-Окт 21:50

Часовой пояс: UTC + 5



Вы не можете начинать темы
Вы не можете отвечать на сообщения
Вы не можете редактировать свои сообщения
Вы не можете удалять свои сообщения
Вы не можете голосовать в опросах
Вы не можете прикреплять файлы к сообщениям
Вы не можете скачивать файлы