Любовь: Инструкция по применению / Manuale d'amore 3 (Джованни Веронези) [2011 г., Мелодрама, комедия, DVDRip] | ЛИЦЕНЗИЯ!

Ответить на тему
 

Mixer City ®

Стаж: 6 лет 11 месяцев

Сообщений: 754

Симпатии: 63

Любовь: Инструкция по применению / Manuale d'amore 3--
Год выпуска :: 2011
Страна :: Италия
Жанр :: Мелодрама, комедия
Продолжительность :: 125 мин
Перевод :: Профессиональный (полное дублирование) | ЛИЦЕНЗИЯ!--Режиссер :: Джованни Веронези-В ролях :: Роберт Де Ниро, Моника Беллуччи, Риккардо Скамарцио, Микеле Плачидо, Лаура Чиатти, Валерия Соларино, Карло Вердоне, Донателла Финокьяро, Даниэль Печчи, Винченцо Альфери и др.-Описание ::
Три новеллы повествуют о том, какой бывает любовь в разные периоды жизни и как переплетения судеб и житейские случайности помогают разобраться в природе человеческих чувств.
«Молодость» — это история, молодого амбициозного юриста Роберто, которого накануне своей свадьбы неожиданно ослепляет вспышка страсти к совсем другой женщине…
В «Зрелости» успешный телеведущий Фабио, преданный муж и заботливый отец, по стечению удивительных обстоятельств оказывается в объятиях молодой Элианы…
«После» — история Адриана, американского профессора истории искусств, который после развода решает переехать в Рим. Он одинок и подавлен. Единственный, кто проявляет к Адриану хоть какой-то интерес — это швейцар Августо. Именно ему Адриан рассказывает свою тайну: семь лет назад он перенес сложнейшую операцию на сердце. Сжалившись над одиноким Адрианом, Августо приводит его в свой дом и знакомит со своей семьей. Но как только Адриан видит красавицу-дочь Августо, он мгновенно забывает о шрамах на своем сердце.--Качество :: DVDRip
Формат :: AVI
Видео кодек :: DivX
Аудио кодек :: AC3
Видео :: 720x384
Аудио :: 6 Ch--И не забывайте про "Спасибо" и "+"
--

Media Info

General
Complete name : Manuale.d'am3re.2011.DVDRip.avi
Format : AVI
Format/Info : Audio Video Interleave
File size : 1.37 GiB
Duration : 2h 1mn
Overall bit rate : 1 618 Kbps
Writing application : VirtualDubMod 1.5.4.1 (build 2178/release)
Writing library : VirtualDubMod build 2178/release
Video
ID : 0
Format : MPEG-4 Visual
Format profile : Advanced [email protected]
Format settings, BVOP : 2
Format settings, QPel : No
Format settings, GMC : No warppoints
Format settings, Matrix : Custom
Codec ID : XVID
Codec ID/Hint : XviD
Duration : 2h 1mn
Bit rate : 1 224 Kbps
Width : 720 pixels
Height : 384 pixels
Display aspect ratio : 1.875
Frame rate : 25.000 fps
Color space : YUV
Chroma subsampling : 4:2:0
Bit depth : 8 bits
Scan type : Progressive
Compression mode : Lossy
Bits/(Pixel*Frame) : 0.177
Stream size : 1.04 GiB (76%)
Writing library : XviD 58
Audio
ID : 1
Format : AC-3
Format/Info : Audio Coding 3
Mode extension : CM (complete main)
Codec ID : 2000
Duration : 2h 1mn
Bit rate mode : Constant
Bit rate : 384 Kbps
Channel(s) : 6 channels
Channel positions : Front: L C R, Side: L R, LFE
Sampling rate : 48.0 KHz
Bit depth : 16 bits
Compression mode : Lossy
Stream size : 333 MiB (24%)
Alignment : Split accross interleaves
Interleave, duration : 40 ms (1.00 video frame)
Interleave, preload duration : 500 ms

Скриншоты




Создавать темы 16-Июл-2011 22:58

[Профиль]  [ЛС] 

Mixer City ®

Стаж: 6 лет 11 месяцев

Сообщений: 754

Симпатии: 63

Смешная комедия

Создавать темы 17-Июл-2011 12:50

[Профиль]  [ЛС] 

shohruh_0777

Стаж: 6 лет 11 месяцев

Сообщений: 41

Очень хороший фильм... Советую всем посмотреть!!!

Создавать темы 22-Июл-2011 11:44

[Профиль]  [ЛС] 

Ravshan1990

Стаж: 6 лет 6 месяцев

Сообщений: 3

Prikolniy Film!!!!

Создавать темы 22-Июл-2011 20:22

[Профиль]  [ЛС] 

Alliena

Стаж: 7 лет

Сообщений: 39

Симпатии: 2

Фильм суперский! Спасибки

Создавать темы 26-Авг-2011 17:00

[Профиль]  [ЛС] 

Руслан

Стаж: 8 лет

Сообщений: 166

Симпатии: 2

ну вот........хотел скачать а никого нет.........((((

Создавать темы 26-Апр-2012 17:12

[Профиль]  [ЛС] 

jaska-3d

Стаж: 6 лет

Сообщений: 250

Симпатии: 25

Смешная комедия
Mixer City- спасибо за релиз, но я хотел кое-чо спрасить, " Продолжительность :: 125 мин " это что, я думал оформлять нужна " чч:мм:сс ", тока без обид !

Создавать темы 26-Апр-2012 17:31

[Профиль]  [ЛС] 

sila4

Стаж: 5 лет 10 месяцев

Сообщений: 27

Симпатии: 3

встаньте на раздачу! вообще не качает

Создавать темы 18-Окт-2012 04:07

[Профиль]  [ЛС] 
Показать сообщения:    
Ответить на тему

Текущее время: 17-Дек 09:14

Часовой пояс: UTC + 5



Вы не можете начинать темы
Вы не можете отвечать на сообщения
Вы не можете редактировать свои сообщения
Вы не можете удалять свои сообщения
Вы не можете голосовать в опросах
Вы не можете прикреплять файлы к сообщениям
Вы не можете скачивать файлы