All inclusive, или Всё включено (Эдуард Радзюкевич) [2011 г., Комедия, DVDRip] | ЛИЦЕНЗИЯ!

Ответить на тему
 

Mixer City ®

Стаж: 6 лет 9 месяцев

Сообщений: 754

Симпатии: 63

All inclusive, или Всё включено--
Год выпуска
:: 2011
Жанр :: Комедия
Продолжительность :: 88 мин--Режиссер :: Эдуард Радзюкевич-В ролях :: Михаил Беспалов, Федор Добронравов, Роман Мадянов, Эдуард Радзюкевич, Андрей Кайков, Григорий Сиятвинда, Нонна Гришаева, Анна Ардова, Марина Александрова, Мирослава Карпович-Описание ::
Жизнь Андрея — владельца дорогой и востребованной ветеринарной клиники для домашних животных с Рублевки — определенно удалась. Мало того, он не обделен вниманием и прекрасных хозяек милых зверюшек. Но страстная ночь с женой олигарха Эвелиной меняет все: ревнивый муж Эдик очень доходчиво объясняет, что изменит сладкую жизнь успешного бизнесмена.
Единственный выход — это побег из страны. И Андрей уезжает в Турцию по программе «Все включено», не подозревая, что в нее включено намного больше, чем кажется на первый взгляд. За ним по пятам следует австрийский киллер Рудольф, а солнечные пляжи таят самое главное испытание в жизни…--Качество :: DVDRip
Формат :: AVI
Видео кодек :: DivX
Аудио кодек :: MP3
Видео :: 640x272
Аудио :: 2 Ch--И не забывайте про "Спасибо" и "+"
--

Media Info

General
Complete name : All inclusive, или Всё включено.avi
Format : AVI
Format/Info : Audio Video Interleave
File size : 704 MiB
Duration : 1h 32mn
Overall bit rate : 1 062 Kbps
Writing application : VirtualDubMod 1.5.10.3 | www.virtualdub-fr.org || (build 2550/release)
Writing library : VirtualDubMod build 2550/release
Video
ID : 0
Format : MPEG-4 Visual
Format profile : Advanced [email protected]
Format settings, BVOP : 2
Format settings, QPel : No
Format settings, GMC : No warppoints
Format settings, Matrix : Default (H.263)
Codec ID : XVID
Codec ID/Hint : XviD
Duration : 1h 32mn
Bit rate : 925 Kbps
Width : 640 pixels
Height : 272 pixels
Display aspect ratio : 2.35:1
Frame rate : 25.000 fps
Color space : YUV
Chroma subsampling : 4:2:0
Bit depth : 8 bits
Scan type : Progressive
Compression mode : Lossy
Bits/(Pixel*Frame) : 0.212
Stream size : 613 MiB (87%)
Writing library : XviD 1.2.1 (UTC 2008-12-04)
Audio
ID : 1
Format : MPEG Audio
Format version : Version 1
Format profile : Layer 3
Mode : Joint stereo
Mode extension : MS Stereo
Codec ID : 55
Codec ID/Hint : MP3
Duration : 1h 32mn
Bit rate mode : Constant
Bit rate : 128 Kbps
Channel(s) : 2 channels
Sampling rate : 48.0 KHz
Compression mode : Lossy
Stream size : 84.8 MiB (12%)
Alignment : Aligned on interleaves
Interleave, duration : 40 ms (1.00 video frame)
Interleave, preload duration : 504 ms
Writing library : LAME3.98r
Encoding settings : -m j -V 4 -q 2 -lowpass 17 -b 128

Скриншоты





Последний раз редактировалось: Mixer City (2011-07-17 01:41), всего редактировалось 2 раз(а)

Создавать темы 17-Июл-2011 01:39

[Профиль]  [ЛС] 

Mixer City ®

Стаж: 6 лет 9 месяцев

Сообщений: 754

Симпатии: 63

Качество супер, фильм неплохой, смешной

Создавать темы 17-Июл-2011 12:51

[Профиль]  [ЛС] 

shavkat8999

Стаж: 6 лет 8 месяцев

Сообщений: 108

Симпатии: 5

Mixer Cityспасибо ay ay ay ay ay

Создавать темы 17-Июл-2011 13:16

[Профиль]  [ЛС] 

Mixer City ®

Стаж: 6 лет 9 месяцев

Сообщений: 754

Симпатии: 63

So now I am writing a dissertation detailing old school hip hop culture. Does anyone know already if the following video is a decent source of information with regard to understanding graffiti?
Это не хип-хоп культура, и не связана с граффити, это комеди бай сикс кадровс, ундерстуд?
)))
Добавлено спустя 8 часов 37 минут:
Всё на сегодня, дораздам завтра


Последний раз редактировалось: Mixer City (2011-07-18 02:04), всего редактировалось 1 раз

Создавать темы 18-Июл-2011 02:04

[Профиль]  [ЛС] 
Показать сообщения:    
Ответить на тему

Текущее время: 20-Окт 11:48

Часовой пояс: UTC + 5



Вы не можете начинать темы
Вы не можете отвечать на сообщения
Вы не можете редактировать свои сообщения
Вы не можете удалять свои сообщения
Вы не можете голосовать в опросах
Вы не можете прикреплять файлы к сообщениям
Вы не можете скачивать файлы