Тачки Мультачки: Байки Мэтра / CarsToon: Mater's Tall Tales [2010 г., анимация, приключения, семейный]

Страницы :  1, 2  След.

Ответить на тему
 

jokerbek ®

Стаж: 6 лет 9 месяцев

Сообщений: 184

Симпатии: 9

Тачки Мультачки: Байки Мэтра / CarsToon: Mater's Tall Tales Год выпуска: 2010
Страна: США
Жанр: анимация, приключения, семейный-Продолжительность | Список серий:
1. Мэтр-каскадёр / Mater The Greater: 00:03:53
2. Мэтр-команда спасения / Rescue Squad Mater: 00:02:53
3. Мэтр-великий рестлер / Monster Truck Mater: 00:04:18
4. Неопознанный летающий Мэтр / Unidentified Flying Mater: 00:04:18
5. Эль Мэтрдор / El Materdor: 00:03:38
6. Мэтр на луне / Moon Mater: 00:04:08
7. Мэтр-металлист / Heavy Metal Mater: 00:03:34
8. Детектив Мэтр / Mater Private Eye: 00:04:38
9. Токио Мэтр / Tokyo Mater: 00:06:56-Перевод: профессиональный (полное дублирование) (Студия «Невафильм»)
Оригинальная аудиодорожка: английский
Русские субтитры: есть (надписи и т.п.), полные
Английские субтитры: есть (полные)
Навигация по главам: есть (без названий)
Режиссер: Джон Лассетер / John Lasseter, Роб Гиббс, Роджер Гулд, Виктор Нейвон
Роли озвучивали: Кейт Фергюсон, Ларри Кейбл Гай, Джордж Карлин-Описание:
Главный герой этих историй, друг гонщика Молнии МакКвин - грузовичок «Мэтр» из городка Радиатор-Спрингс.
В своих рассказах он предстаёт перед зрителем в неповторимых образах лихого спасателя, дипломированного доктора, расскажет о том как он был звездой каскадерского авто-шоу, и победителем среди стритрейсеров на автогонках в Токио.
Мэтр выдумывает нереальные истории, в которые то и дело втягивает своего товарища МакКвина.
При этом Молнии далеко не всегда в историях Мэтра достаются удачные роли...
Доп. информация: Видео кодировалось с тестами, в два прохода с заданным качеством crf = 17, поэтому битрейт у мультов разный, в зависимости от сжимаемости..-Качество: BDrip
Формат: MKV
Видео кодек: H.264
Аудио кодек: AC3 EX, DTS-ES-Список мультфильмов, скриншоты, тех.данные:-

Тачки Срын 2

MediaInfo | x264

General
Complete name : D:\_A HD cut _\Cars.Toon.Mater's.Tall.Tales.2010\1.Мэтр Каскадёр_Mater the Greater.mkv
Format : Matroska
File size : 223 MiB
Duration : 3mn 53s
Overall bit rate : 8 038 Kbps
Movie name : Cars.Toon.Mater's.Tall.Tales.2010
Encoded date : UTC 2010-11-09 17:31:39
Writing application : mkvmerge v3.4.0 ('Rapunzel') сборка от May 15 2010 09:38:20
Writing library : libebml v0.8.0 + libmatroska v0.9.0
Cover : Yes / Yes
Video
ID : 1
Format : AVC
Format/Info : Advanced Video Codec
Format profile : [email protected]
Format settings, CABAC : Yes
Format settings, ReFrames : 8 frames
Codec ID : V_MPEG4/ISO/AVC
Duration : 3mn 53s
Bit rate : 5 880 Kbps
Width : 1 280 pixels
Height : 720 pixels
Display aspect ratio : 16:9
Frame rate : 23.976 fps
Color space : YUV
Chroma subsampling : 4:2:0
Bit depth : 8 bits
Scan type : Progressive
Bits/(Pixel*Frame) : 0.266
Stream size : 159 MiB (71%)
Title : Мэтр Каскадёр_(Mater the Greater)
Writing library : x264 core 107 r1745 4785e8e
Encoding settings : cabac=1 / ref=8 / deblock=1:-1:-1 / analyse=0x3:0x113 / me=umh / subme=10 / psy=1 / psy_rd=0.80:0.05 / mixed_ref=1 / me_range=32 /
chroma_me=1 / trellis=2 / 8x8dct=1 / cqm=0 / deadzone=21,11 / fast_pskip=1 / chroma_qp_offset=-3 / threads=6 / sliced_threads=0 / nr=0 / decimate=1 / interlaced=0 /
constrained_intra=0 / bframes=8 / b_pyramid=2 / b_adapt=2 / b_bias=0 / direct=3 / weightb=1 / open_gop=0 / weightp=2 / keyint=250 / keyint_min=23 / scenecut=40 /
intra_refresh=0 / rc_lookahead=80 / rc=2pass / mbtree=1 / bitrate=5880 / ratetol=1.0 / qcomp=0.70 / qpmin=10 / qpmax=51 / qpstep=4 / cplxblur=20.0 / qblur=0.5 /
vbv_maxrate=50000 / vbv_bufsize=62500 / ip_ratio=1.40 / aq=2:0.80 / nal_hrd=none
Language : English
Matrix coefficients : BT.709-5, BT.1361, IEC 61966-2-4 709, SMPTE RP177
Audio #1
ID : 2
Format : AC-3
Format/Info : Audio Coding 3
Mode extension : CM (complete main)
Codec ID : A_AC3
Duration : 3mn 53s
Bit rate mode : Constant
Bit rate : 640 Kbps
Channel(s) : 6 channels
Channel positions : Front: L C R, Side: L R, LFE
Sampling rate : 48.0 KHz
Bit depth : 16 bits
Stream size : 17.8 MiB (8%)
Title : Dubljaz, AC3 EX, 5.1 channels, 640kbps, 48kHz
Language : Russian
Audio #2
ID : 3
Format : DTS
Format/Info : Digital Theater Systems
Format profile : ES
Codec ID : A_DTS
Duration : 3mn 53s
Bit rate mode : Constant
Bit rate : 1 510 Kbps
Channel(s) : 6 channels
Channel positions : Front: L C R, Side: L R, LFE
Sampling rate : 48.0 KHz
Bit depth : 24 bits
Stream size : 42.0 MiB (19%)
Title : Original, core: DTS-ES, 5.1 channels, 24 bits, 1509kbps, 48kHz
Language : English
Text #1
ID : 4
Format : UTF-8
Codec ID : S_TEXT/UTF8
Codec ID/Info : UTF-8 Plain Text
Title : Forced
Language : Russian
Text #2
ID : 5
Format : UTF-8
Codec ID : S_TEXT/UTF8
Codec ID/Info : UTF-8 Plain Text
Title : Full
Language : Russian
Text #3
ID : 6
Format : UTF-8
Codec ID : S_TEXT/UTF8
Codec ID/Info : UTF-8 Plain Text
Title : SDH
Language : English
Menu
00:00:00.000 : en:Chapter 1
00:00:57.849 : en:Chapter 2
00:02:02.413 : en:Chapter 3

Скриншоты



Последний раз редактировалось: jokerbek (2011-07-27 08:51), всего редактировалось 4 раз(а)

Создавать темы 17-Июл-2011 12:31

[Профиль]  [ЛС] 

jokerbek ®

Стаж: 6 лет 9 месяцев

Сообщений: 184

Симпатии: 9

zayniddin чё те надо ???

Создавать темы 17-Июл-2011 18:32

[Профиль]  [ЛС] 

volume

Стаж: 7 лет

Сообщений: 228

Симпатии: 11

Кто нибудь смотрел мультик, как отцените стоит ли качать?

Создавать темы 17-Июл-2011 23:39

[Профиль]  [ЛС] 

jokerbek ®

Стаж: 6 лет 9 месяцев

Сообщений: 184

Симпатии: 9

volume
мулть очен Супер !!!

Создавать темы 18-Июл-2011 08:35

[Профиль]  [ЛС] 

valiant

Стаж: 7 лет 3 месяца

Сообщений: 3

скорости!

Создавать темы 18-Июл-2011 14:05

[Профиль]  [ЛС] 

masajist

Стаж: 7 лет 7 месяцев

Сообщений: 14

Симпатии: 1

Народ поднажмите газу плизззз ;)

Создавать темы 20-Июл-2011 11:57

[Профиль]  [ЛС] 

jokerbek ®

Стаж: 6 лет 9 месяцев

Сообщений: 184

Симпатии: 9

ок лови az

Создавать темы 20-Июл-2011 11:59

[Профиль]  [ЛС] 

jokerbek ®

Стаж: 6 лет 9 месяцев

Сообщений: 184

Симпатии: 9

Провейти Модеры

Создавать темы 27-Июл-2011 08:52

[Профиль]  [ЛС] 

jamoljan

Стаж: 6 лет 10 месяцев

Сообщений: 21

Симпатии: 1

дайте скорости я уже 40% скачаль! ak

Создавать темы 04-Авг-2011 09:59

[Профиль]  [ЛС] 

jokerbek ®

Стаж: 6 лет 9 месяцев

Сообщений: 184

Симпатии: 9

на лови az

Создавать темы 17-Авг-2011 17:17

[Профиль]  [ЛС] 

Топик был перенесен из форума Мультфильмы в форум HD-AVC

Pendalf

Создавать темы 08-Янв-2012 02:21

 

.RiDeR.

Стаж: 5 лет 5 месяцев

Сообщений: 17

ты че скорость увеличить не можешь

Создавать темы 06-Апр-2012 09:05

[Профиль]  [ЛС] 

.RiDeR.

Стаж: 5 лет 5 месяцев

Сообщений: 17

слышь скорость увеличь

Создавать темы 06-Апр-2012 10:43

[Профиль]  [ЛС] 

.RiDeR.

Стаж: 5 лет 5 месяцев

Сообщений: 17

слышь скорость увеличь!!!!!!!!!!!!!!!!!-Предупреждение. Правила.
2.3. Заниматься оверпостингом и размножением офф-топиков.
Будьте повежливее! © Pendalf

Создавать темы 06-Апр-2012 12:55

[Профиль]  [ЛС] 

Alexsandr_uz

Стаж: 5 лет 7 месяцев

Сообщений: 2

спасибо

Создавать темы 17-Июн-2012 01:25

[Профиль]  [ЛС] 
Показать сообщения:    
Ответить на тему

Текущее время: 25-Сен 09:21

Часовой пояс: UTC + 5



Вы не можете начинать темы
Вы не можете отвечать на сообщения
Вы не можете редактировать свои сообщения
Вы не можете удалять свои сообщения
Вы не можете голосовать в опросах
Вы не можете прикреплять файлы к сообщениям
Вы не можете скачивать файлы