Бумер 2 (Петр Буслов) [2006 г., Драма, Криминал, DVDRip]

Ответить на тему
 

shadow91 ®

Стаж: 6 лет 8 месяцев

Сообщений: 60

Бумер 2
Год выпуска: 2006
Жанр: Драма, Криминал
Продолжительность: 01:50:41
Режиссер: Петр Буслов
В ролях: Владимир Вдовиченков, Андрей Мерзликин, Светлана Устинова, Николай Олялин, Александр Голубев, Александр Цуркан, Феликс Антипов, Юрий Колокольников, Дарья Мишченко
Описание: Константин Огородников (Кот) выходит из колонии, не отсидев положенный срок. После всех событий: гибели друзей, тюрьмы… Кот стал другим человеком. Он хочет начать жизнь с чистого листа.
Но прежде в память о погибшем товарище, в гибели которого невольно виноват Кот, он должен отыскать одного человека… Но встреча с семнадцатилетней Дашкой переворачивает его планы… Снова Кот пройдет через множество испытаний, в которых, кажется, невозможно выжить
Качество: DVDRip
Формат: AVI
Видео кодек: Другой MPEG4
Аудио кодек: AC3
Видео: mpeg4 1772 kb/s Разрешение: 640x352
Аудио: ac3, 48000 Hz, 5.1, s16, 448 kb/s

Скриншоты



Последний раз редактировалось: shadow91 (2012-01-17 13:26), всего редактировалось 1 раз

Создавать темы 17-Июл-2011 12:58

[Профиль]  [ЛС] 

junior

Стаж: 8 лет

Сообщений: 138

Симпатии: 7

Если кому надо есть качеством получше

mediainfo

home/films/russian/Bumer.Fil'm.Vtoroj.2006.RUS.BDRip.XviD.AC3.-HELLYWOOD/Bumer.Fil'm.Vtoroj.2006.RUS.BDRip.XviD.AC3.-HELLYWOOD.avi
General
Complete name : home/films/russian/Bumer.Fil'm.Vtoroj.2006.RUS.BDRip.XviD.AC3.-HELLYWOOD/Bumer.Fil'm.Vtoroj.2006.RUS.BDRip.XviD.AC3.-HELLYWOOD.avi
Format : AVI
Format/Info : Audio Video Interleave
Format profile : OpenDML
File size : 2.19 GiB
Duration : 1h 55mn
Overall bit rate : 2 717 Kbps
Movie name : Бумер: Фильм второй (2006) BDRip
Director : KalliostroV
Writing application : VirtualDubModRus 1.5.10.2 (build 2542/release)
Copyright : http://www.hellywood.ru/
Comment : 26.08.2009
Video #0
ID : 0
Format : MPEG-4 Visual
Format profile : [email protected]
Format settings, BVOP : Yes
Format settings, QPel : No
Format settings, GMC : No warppoints
Format settings, Matrix : Default (MPEG)
Codec ID : XVID
Codec ID/Hint : XviD
Duration : 1h 55mn
Bit rate : 2 257 Kbps
Width : 720 pixels
Height : 400 pixels
Display aspect ratio : 16:9
Frame rate : 23.976 fps
Resolution : 24 bits
Colorimetry : 4:2:0
Scan type : Progressive
Bits/(Pixel*Frame) : 0.327
Stream size : 1.82 GiB (83%)
Writing library : XviD 1.2.1 (UTC 2008-12-04)
Audio #1
ID : 1
Format : AC-3
Format/Info : Audio Coding 3
Codec ID : 2000
Duration : 1h 55mn
Bit rate mode : Constant
Bit rate : 448 Kbps
Channel(s) : 6 channels
Channel positions : Front: L C R, Surround: L R, LFE
Sampling rate : 48.0 KHz
Stream size : 369 MiB (16%)
Alignment : Split accross interleaves
Interleave, duration : 42 ms (1.00 video frame)
Interleave, preload duration : 500 ms

Скриншоты



Создавать темы 17-Июл-2011 13:12

[Профиль]  [ЛС] 

Архип

Стаж: 6 лет 7 месяцев

Сообщений: 45

Симпатии: 1

:bb:

Создавать темы 19-Июл-2011 19:08

[Профиль]  [ЛС] 

shadow91 ®

Стаж: 6 лет 8 месяцев

Сообщений: 60

вернулся в раздачу)

Создавать темы 31-Дек-2012 11:37

[Профиль]  [ЛС] 

Maks_3090

Стаж: 4 года 7 месяцев

Сообщений: 1

дайте раздачу

Создавать темы 24-Июл-2013 09:24

[Профиль]  [ЛС] 

ismail6797

Стаж: 4 года 4 месяца

Сообщений: 7

shadow91, помоги с раздачей __________

Создавать темы 25-Авг-2013 01:19

[Профиль]  [ЛС] 

ismail6797

Стаж: 4 года 4 месяца

Сообщений: 7

скоростиии
это точно

Создавать темы 25-Авг-2013 01:20

[Профиль]  [ЛС] 

server77

Стаж: 6 лет 11 месяцев

Сообщений: 1

Скачать

Создавать темы 20-Янв-2014 15:37

[Профиль]  [ЛС] 

maqsud_98.00

Стаж: 3 года 11 месяцев

Сообщений: 4

скорс дайте блин

Создавать темы 17-Фев-2014 16:16

[Профиль]  [ЛС] 

GreenFay

Стаж: 5 лет 10 месяцев

Сообщений: 5

дайте скорости плиз

Создавать темы 30-Июл-2014 14:46

[Профиль]  [ЛС] 
Показать сообщения:    
Ответить на тему

Текущее время: 18-Дек 23:23

Часовой пояс: UTC + 5



Вы не можете начинать темы
Вы не можете отвечать на сообщения
Вы не можете редактировать свои сообщения
Вы не можете удалять свои сообщения
Вы не можете голосовать в опросах
Вы не можете прикреплять файлы к сообщениям
Вы не можете скачивать файлы