Пираньи 3D / Piranha 3D (Александр Ажа) [2010 г., ужасы, триллер, комедия,, DVDRip]

Ответить на тему
 

anviko ®

Стаж: 6 лет 10 месяцев

Сообщений: 84

Симпатии: 3

Пираньи 3D / Piranha 3D Год выпуска: 2010
Страна: США
Жанр: ужасы, триллер, комедия,
Продолжительность: 85 мин.
Перевод: Профессиональный (полное дублирование)
Режиссер: Александр Ажа
В ролях: Элизабет Шу
Стивен Р. МакКуин
Джерри О’Коннелл
Ричард Дрейфусс
Винг Рэймс
Кристофер Ллойд
Элай Рот
Коуди Лонго
Джессика Зор
Келли Брук
Описание: 20 тысяч подростков курортного городка у озера Виктория готовятся к празднованию ежегодного праздника начала лета. Но ночное землетрясение высвобождает сотни тысяч доисторических пираний прямо накануне торжества. Очаровательная шериф, ее подчиненные-полицейские и доктор Горден Рэйбэнкс решают сделать все, чтобы веселый праздник молодежи в озере не превратился в кровавое пиршество. Но пираньи уже знают ответ, кто победит: молодость или многовековая жажда крови…
Качество: DVDRip
Формат: AVI
Видео кодек: XviD
Аудио кодек: AC3
Видео: 704Х288, XviD, 1 854 Kbps, 25.000 fps
Аудио: AC-3, 448 Kbps, 48.0 KHz, 6 channels (Front: L C R, Surround: L R, LFE)
Дополнительно: красно-синий (зеленый) анаглиф

Медио

General
Format : AVI
Format/Info : Audio Video Interleave
File size : 1.37 GiB
Duration : 1h 24mn
Overall bit rate : 2 312 Kbps
Writing application : VirtualDubMod 1.5.10.2 (build 2540/release)
Writing library : VirtualDubMod build 2540/release
Video
ID : 0
Format : MPEG-4 Visual
Format profile : Advanced [email protected]
Format settings, BVOP : Yes
Format settings, QPel : No
Format settings, GMC : No warppoints
Format settings, Matrix : Default (H.263)
Muxing mode : Packed bitstream
Codec ID : XVID
Codec ID/Hint : XviD
Duration : 1h 24mn
Bit rate : 1 854 Kbps
Width : 704 pixels
Height : 288 pixels
Display aspect ratio : 2.40:1
Frame rate : 25.000 fps
Resolution : 8 bits
Colorimetry : 4:2:0
Scan type : Progressive
Bits/(Pixel*Frame) : 0.366
Stream size : 1.10 GiB (80%)
Writing library : XviD 1.2.1 (UTC 2008-12-04)
Audio
ID : 1
Format : AC-3
Format/Info : Audio Coding 3
Codec ID : 2000
Duration : 1h 24mn
Bit rate mode : Constant
Bit rate : 448 Kbps
Channel(s) : 6 channels
Channel positions : Front: L C R, Surround: L R, LFE
Sampling rate : 48.0 KHz
Video delay : 226ms
Stream size : 272 MiB (19%)
Alignment : Split accross interleaves
Interleave, duration : 40 ms (1.00 video frame)
Interleave, preload duration : 500 ms

Скриншоты






 


Последний раз редактировалось: anviko (2011-07-19 16:42), всего редактировалось 1 раз

Создавать темы 19-Июл-2011 16:40

[Профиль]  [ЛС] 

infernal.

Стаж: 7 лет 7 месяцев

Сообщений: 117

Симпатии: 1

хотя думаю Тут разница тщетная...

Создавать темы 20-Июл-2011 00:56

[Профиль]  [ЛС] 

Leonardo

Стаж: 6 лет 4 месяца

Сообщений: 11

ogo

Создавать темы 24-Июл-2011 20:06

[Профиль]  [ЛС] 

Dior666

Стаж: 6 лет 11 месяцев

Сообщений: 22

Симпатии: 1

Smay1ik знаеш где Виста находится? На новом базаре! Там есть по 7000 сумов

Создавать темы 25-Июл-2011 15:56

[Профиль]  [ЛС] 
Показать сообщения:    
Ответить на тему

Текущее время: 15-Дек 04:01

Часовой пояс: UTC + 5



Вы не можете начинать темы
Вы не можете отвечать на сообщения
Вы не можете редактировать свои сообщения
Вы не можете удалять свои сообщения
Вы не можете голосовать в опросах
Вы не можете прикреплять файлы к сообщениям
Вы не можете скачивать файлы