Жирнушка / Blubberella (Уве Болл) [2011 г., комедия, пародия, HDRip]

Страницы :  1, 2  След.

Ответить на тему
 

Mansurbek84 ®

Стаж: 7 лет

Сообщений: 80

Симпатии: 8

Жирнушка / Blubberella
Год выпуска: 2011
Страна: Германия, Канада
Жанр: комедия, пародия
Продолжительность: 01:23:03
Перевод: Любительский (одноголосый) (den904)
Режиссер: Уве Болл
В ролях: Уильям Белли, Уве Болл, Брендан Флетчер, Наталия Гуслистая, Линдсэй Холлистер, Клинт Ховард, Стеффен Меннекс, Майкл Паре, Даворка Товило, Фабрис Колсон
Описание: Первая жирная женщина-супергерой. Она может надрать любую задницу, так как сама имеет наибольшую.
Качество: HDRip
Формат: AVI
Видео кодек: XviD
Аудио кодек: AC3
Видео: 720x288 (2.50:1), 25 fps, XviD build 58 ~1966 kbps avg, 0.38 bit/pixel
Аудио#1: 48 kHz, AC3 Dolby Digital, 2/0 (L,R) ch, ~192.00 kbps avg [Любительский (одноголосый)]
Аудио#2: 48 kHz, AC3 Dolby Digital, 2/0 (L,R) ch, ~192.00 kbps avg [оригинал eng]

Мед.инфо

General
Complete name :
Format : AVI
Format/Info : Audio Video Interleave
File size : 1.37 GiB
Duration : 1h 23mn
Overall bit rate : 2 366 Kbps
Writing application : VirtualDubMod 1.5.10.3 | www.virtualdub-fr.org || (build 2550/release)
Writing library : VirtualDubMod build 2550/release
Video #0
ID : 0
Format : MPEG-4 Visual
Format profile : Advanced [email protected]
Format settings, BVOP : 1
Format settings, QPel : No
Format settings, GMC : No warppoints
Format settings, Matrix : Default (MPEG)
Codec ID : XVID
Codec ID/Hint : XviD
Duration : 1h 23mn
Bit rate : 1 968 Kbps
Width : 720 pixels
Height : 288 pixels
Display aspect ratio : 2.500
Frame rate : 25.000 fps
Color space : YUV
Chroma subsampling : 4:2:0
Bit depth : 8 bits
Scan type : Progressive
Compression mode : Lossy
Bits/(Pixel*Frame) : 0.380
Stream size : 1.14 GiB (83%)
Writing library : XviD 58
Audio #1
ID : 1
Format : AC-3
Format/Info : Audio Coding 3
Mode extension : CM (complete main)
Codec ID : 2000
Duration : 1h 23mn
Bit rate mode : Constant
Bit rate : 192 Kbps
Channel(s) : 2 channels
Channel positions : Front: L R
Sampling rate : 48.0 KHz
Bit depth : 16 bits
Compression mode : Lossy
Stream size : 114 MiB (8%)
Alignment : Aligned on interleaves
Interleave, duration : 40 ms (1.00 video frame)
Interleave, preload duration : 512 ms
Audio #2
ID : 2
Format : AC-3
Format/Info : Audio Coding 3
Mode extension : CM (complete main)
Codec ID : 2000
Duration : 1h 23mn
Bit rate mode : Constant
Bit rate : 192 Kbps
Channel(s) : 2 channels
Channel positions : Front: L R
Sampling rate : 48.0 KHz
Bit depth : 16 bits
Compression mode : Lossy
Stream size : 114 MiB (8%)
Alignment : Split accross interleaves
Interleave, duration : 40 ms (1.00 video frame)
Interleave, preload duration : 500 ms

Скриншоты





Последний раз редактировалось: Mansurbek84 (2011-07-21 23:02), всего редактировалось 1 раз

Создавать темы 21-Июл-2011 16:41

[Профиль]  [ЛС] 

uz.toha.ru

Стаж: 7 лет 2 месяца

Сообщений: 44

Рейтинг фильма: 3.857 (83)

_________________
Подпись отключена за нарушение правил форума

Создавать темы 21-Июл-2011 16:50

[Профиль]  [ЛС] 

Mansurbek84 ®

Стаж: 7 лет

Сообщений: 80

Симпатии: 8

Я сам еще не смотрел только скачал. Посмотрим.

Создавать темы 21-Июл-2011 16:52

[Профиль]  [ЛС] 

Руслан

Стаж: 7 лет 11 месяцев

Сообщений: 166

Симпатии: 2

уже само название at

Создавать темы 21-Июл-2011 16:55

[Профиль]  [ЛС] 

Mansurbek84 ®

Стаж: 7 лет

Сообщений: 80

Симпатии: 8

ag тупая комедия. 5 минут посмотрел.

Создавать темы 21-Июл-2011 17:03

[Профиль]  [ЛС] 

tima89_21

Стаж: 7 лет 7 месяцев

Сообщений: 93

Mansurbek84 на каком языке Аудио#2: 48 kHz, AC3 Dolby Digital, 2/0 (L,R) ch, ~192.00 kbps avg [оригинал] ??

Создавать темы 21-Июл-2011 18:05

[Профиль]  [ЛС] 

Sinema_uz

Стаж: 6 лет 10 месяцев

Сообщений: 303

Симпатии: 4

а чео там делает новотбок??????? ag ag ag az :bb:

Создавать темы 21-Июл-2011 20:46

[Профиль]  [ЛС] 

stylex

Стаж: 6 лет 4 месяца

Сообщений: 41

Симпатии: 4

Перевод: Любительский (одноголосый) (den904)
Когда я вижу это! сразу не захочется скачать(((( ac ac ac

Создавать темы 21-Июл-2011 21:21

[Профиль]  [ЛС] 

Mansurbek84 ®

Стаж: 7 лет

Сообщений: 80

Симпатии: 8

stylex никто не заставляет тебя качать.

Создавать темы 21-Июл-2011 23:01

[Профиль]  [ЛС] 

tima89_21

Стаж: 7 лет 7 месяцев

Сообщений: 93

Mansurbek84 на вопрос ответь ?

Создавать темы 22-Июл-2011 07:32

[Профиль]  [ЛС] 

Mansurbek84 ®

Стаж: 7 лет

Сообщений: 80

Симпатии: 8

tima89_21 написал же оригинал eng

Создавать темы 22-Июл-2011 07:47

[Профиль]  [ЛС] 

Stick_SN

Стаж: 6 лет 10 месяцев

Сообщений: 36

Mansurbek84 ты ah ay

Создавать темы 22-Июл-2011 08:12

[Профиль]  [ЛС] 

adham_boy

Стаж: 7 лет 1 месяц

Сообщений: 122

Симпатии: 9

Я посморел фильм ,полный отстой , тупой ,хуже нет бывает


Последний раз редактировалось: adham_boy (2011-07-22 17:27), всего редактировалось 1 раз

Создавать темы 22-Июл-2011 17:27

[Профиль]  [ЛС] 

Tolyan

Стаж: 6 лет 10 месяцев

Сообщений: 25

Симпатии: 1

Режиссер: Уве Болл
Это уже показатель ккачества кино
ни одного удачного фильма

Создавать темы 23-Июл-2011 10:05

[Профиль]  [ЛС] 

dragunov

Стаж: 6 лет 10 месяцев

Сообщений: 71

Симпатии: 6

Перевод: Любительский (одноголосый) (den904)
Когда я вижу это! сразу не захочется скачать(((( ac ac ac
100 % согласен невозможно просто смареть!!!

Создавать темы 26-Июл-2011 14:41

[Профиль]  [ЛС] 
Показать сообщения:    
Ответить на тему

Текущее время: 18-Ноя 13:23

Часовой пояс: UTC + 5



Вы не можете начинать темы
Вы не можете отвечать на сообщения
Вы не можете редактировать свои сообщения
Вы не можете удалять свои сообщения
Вы не можете голосовать в опросах
Вы не можете прикреплять файлы к сообщениям
Вы не можете скачивать файлы