Трансформеры: Месть падших / Transformers: Revenge of the Fallen (Майкл Бэй /Michael Bay) [2009 г., Фантастика, боевик, HDTVRip]

Ответить на тему
 

smith ®

Стаж: 7 лет 6 месяцев

Сообщений: 33

Симпатии: 8

Трансформеры: Месть падших / Transformers: Revenge of the Fallen
Год выпуска: 2009
Страна: США
Жанр: Фантастика, боевик
Продолжительность: 02:23:28
Перевод: Профессиональный (полное дублирование)
Режиссер: Майкл Бэй /Michael Bay
В ролях: Шайа ЛаБаф /Shia LaBeouf/, Меган Фокс /Megan Fox/, Джош Дюамель /Josh Duhamel/, Рэйчел Тейлор /Rachael Taylor/, Тайрез Гибсон /Tyrese Gibson/, Джон Войт /Jon Voight/
Описание: Прошло два года с момента масштабного столкновения Автоботов и Десептиконов на Земле. Сэм на время разлучается со своей девушкой Микаэлой и отправляется учиться в колледж. Отряд автоботов во главе с Оптимусом Праймом был объединён вместе с людьми теперь уже майора Леннокса в специальное подразделение под названием «NEST» (Networked Elements: Supporters and Transformers) и занялся отловом оставшихся на планете Десептиконов. Но зло не дремлет, оно лишь затаилось. И очень скоро на планету обрушиваются основные силы десептиконов, желающих во что бы то ни стало воскресить своего павшего лидера — Мегатрона — и разгромить ряды защитников добра… Однако Мегатрон тоже слуга, т. к. подчиняется некому Фоллену (Fallen, от англ. падший). Фоллен пытается взять то, что когда-то давным-давно ему не удалось на Земле — матрицу, позволяющую активировать устройство для производства энергона, которое при этом уничтожит Солнце. В этом ему противостоят автоботы и люди. Но впоследствии оказывается, что Фоллен — один из Праймов, предавший своих братьев. И остановить его может только Прайм. Оптимус погибает в битве, убив перед этим двоих десептиконов и Сэм отправляется на поиски матрицы — единственного, что может воскресить Оптимуса Прайма.
Качество: HDTVRip
Формат: MKV
Видео кодек: XviD
Аудио кодек: AC3
Видео: Advanced Video Codec 1920x796 23.976 fps 31.2 Mbps
Аудио: Русский AC3 5.1, 48 KHz, 448 kbps

Скриншоты



General
Unique ID : 239632984517716703630002195785402328125 (0xB447A251663B1999B4BA7E2F3E60A43D)
Format : Matroska
File size : 16.3 GiB
Duration : 2h 29mn
Overall bit rate : 15.6 Mbps
Movie name : ~Sahaa~
Encoded date : UTC 2009-12-21 18:11:50
Writing application : mkvmerge v2.4.0 ('Fumbling Towards Ecstasy') built on Oct 11 2008 20:13:15
Writing library : libebml v0.7.7 + libmatroska v0.8.1
Cover : Yes / Yes / Yes / Yes / Yes
Video #1
ID : 1
Format : AVC
Format/Info : Advanced Video Codec
Format profile : [email protected]
Format settings, CABAC : Yes
Format settings, ReFrames : 5 frames
Codec ID : V_MPEG4/ISO/AVC
Duration : 2h 29mn
Bit rate : 15.1 Mbps
Width : 1 920 pixels
Height : 796 pixels
Display aspect ratio : 2.40:1
Frame rate : 23.976 fps
Color space : YUV
Chroma subsampling : 4:2:0
Bit depth : 8 bits
Scan type : Progressive
Bits/(Pixel*Frame) : 0.412
Stream size : 15.5 GiB (95%)
Writing library : x264 core 75 r1251M e553a4c
Encoding settings : cabac=1 / ref=5 / deblock=1:-3:-3 / analyse=0x3:0x133 / me=esa / subme=9 / psy=1 / psy_rd=0.9:0.4 / mixed_ref=1 / me_range=32 / chroma_me=1 / trellis=2 / 8x8dct=1 / cqm=0 / deadzone=21,11 / chroma_qp_offset=-4 / threads=12 / nr=0 / decimate=0 / mbaff=0 / bframes=4 / b_pyramid=1 / b_adapt=2 / b_bias=0 / direct=3 / wpredb=1 / keyint=250 / keyint_min=25 / scenecut=40 / rc=2pass / mbtree=0 / bitrate=15103 / ratetol=1.0 / qcomp=0.60 / qpmin=10 / qpmax=51 / qpstep=4 / cplxblur=20.0 / qblur=0.5 / ip_ratio=1.40 / pb_ratio=1.30 / aq=1:0.80
Language : English
Audio #2
ID : 2
Format : AC-3
Format/Info : Audio Coding 3
Mode extension : CM (complete main)
Codec ID : A_AC3
Duration : 2h 29mn
Bit rate mode : Constant
Bit rate : 448 Kbps
Channel(s) : 6 channels
Channel positions : Front: L C R, Side: L R, LFE
Sampling rate : 48.0 KHz
Bit depth : 16 bits
Compression mode : Lossy
Stream size : 480 MiB (3%)
Title : Русский. Дубляж
Language : Russian


Последний раз редактировалось: smith (2011-07-24 15:45), всего редактировалось 1 раз

Создавать темы 22-Июл-2011 11:50

[Профиль]  [ЛС] 

DMiTRY

Стаж: 6 лет 6 месяцев

Сообщений: 649

Симпатии: 28

скрины очень приятные... раздача надеюсь будет когданибудь)))

Создавать темы 22-Июл-2011 12:04

[Профиль]  [ЛС] 

infernal.

Стаж: 7 лет 6 месяцев

Сообщений: 117

Симпатии: 1

скриншоты должны быть сделаны из оригинального образа фильма, а у вас соотношение разное совсем.
да и потом выложите Mediainfo к фильму, обязательный пункт.

Создавать темы 22-Июл-2011 17:51

[Профиль]  [ЛС] 

Nano95

Стаж: 7 лет 5 месяцев

Сообщений: 139

Симпатии: 1

infernal. можно вопрос когда ето mediainfo стала обязательной?

Создавать темы 22-Июл-2011 17:55

[Профиль]  [ЛС] 

infernal.

Стаж: 7 лет 6 месяцев

Сообщений: 117

Симпатии: 1

список файлов
ТРАНСФОРМЕРЫ-2.BDRip.1080p-Kinozal-TV-HD.mkv
Видео: Advanced Video Codec 1920x796 23.976 fps 31.2 Mbps
Качество: HDTVRip
Скрины не соответствуют ни к чему из написанного.
тебе еще объяснить почему я прошу выложить mediainfo Nano95?

Создавать темы 22-Июл-2011 18:18

[Профиль]  [ЛС] 

Nano95

Стаж: 7 лет 5 месяцев

Сообщений: 139

Симпатии: 1

infernal. пусть исправит зачем тебе mediainfo?

Создавать темы 23-Июл-2011 11:58

[Профиль]  [ЛС] 

smith ®

Стаж: 7 лет 6 месяцев

Сообщений: 33

Симпатии: 8

infernal. добавил инфу

Создавать темы 24-Июл-2011 15:46

[Профиль]  [ЛС] 

AndreyTs

Стаж: 6 лет 1 месяц

Сообщений: 4

кто скачал, вернитесь на раздачу пожалуйста

Создавать темы 11-Дек-2011 09:51

[Профиль]  [ЛС] 

Pendalf

Стаж: 6 лет 5 месяцев

Сообщений: 416

Симпатии: 34

Скачавшие дайте скорости, уже месяц качаю... 2,5 гб осталось.

Создавать темы 24-Мар-2012 10:14

[Профиль]  [ЛС] 

DMiTRY

Стаж: 6 лет 6 месяцев

Сообщений: 649

Симпатии: 28

Скачавшие дайте скорости, уже месяц качаю... 2,5 гб осталось.
Pendalf,если хотите,могу выложить чуть поменьше размером... зато с постойнной раздачей. размер где то 11-12гб

media info

Качество: BDRip
Формат видео: H264/AVC
Формат аудио: AC3, DTS
Видео: 1280x720 (16x9), 8781 кб/с, 24 fps
Аудио №1: AC3 5.1 Surround, 448 кб/с, 48000 Hz, (дублированный)
Аудио №2: DTS 5.1 Surround, 1510 кб/с, 48000 Hz, (оригинал)
Аудио №3: Ogg Vorbis 2.0, 78 кб/с, 48000 Hz, (комментарии режиссера)
Язык: Русский, английский
Перевод: Дублированный

Создавать темы 24-Мар-2012 15:20

[Профиль]  [ЛС] 

Pendalf

Стаж: 6 лет 5 месяцев

Сообщений: 416

Симпатии: 34

DMiTRY, был бы признателен)

Создавать темы 24-Мар-2012 16:39

[Профиль]  [ЛС] 

DMiTRY

Стаж: 6 лет 6 месяцев

Сообщений: 649

Симпатии: 28

могу выложить завтра днём,если вас устроит такой вариант,то будет сделано... жду вашего ответа. раздача начнётся сразу,а потом буду раздавать с 8 утра до 11 вечера.

Создавать темы 24-Мар-2012 19:50

[Профиль]  [ЛС] 

Pendalf

Стаж: 6 лет 5 месяцев

Сообщений: 416

Симпатии: 34

DMiTRY, как вам удобно, меня все устраивает) спасибо)

Создавать темы 24-Мар-2012 19:58

[Профиль]  [ЛС] 

DMiTRY

Стаж: 6 лет 6 месяцев

Сообщений: 649

Симпатии: 28

DMiTRY, как вам удобно, меня все устраивает) спасибо)
завтра будет сделано,качайте на здоровье.

Создавать темы 24-Мар-2012 20:12

[Профиль]  [ЛС] 
Показать сообщения:    
Ответить на тему

Текущее время: 22-Ноя 19:59

Часовой пояс: UTC + 5



Вы не можете начинать темы
Вы не можете отвечать на сообщения
Вы не можете редактировать свои сообщения
Вы не можете удалять свои сообщения
Вы не можете голосовать в опросах
Вы не можете прикреплять файлы к сообщениям
Вы не можете скачивать файлы