Репортаж / [Rec] (Хайме Балагуэро, Франциско Плаза) [2007 г., ужасы, триллер, BDRip 720]

Страницы :  1, 2  След.

Ответить на тему
 

Damir23.02 ®

Стаж: 6 лет 5 месяцев

Сообщений: 12

Репортаж / [Rec]
Год выпуска: 2007
Страна: Испания
Жанр: ужасы, триллер

Слоган: «Прямая трансляция из ада»
Продолжительность: 1:15:14
Перевод: Профессиональный (полное дублирование)
Бюджет: €1 500 000
7.324 (10 231)
7.70 (44 851)
Режиссер: Хайме Балагуэро, Франциско Плаза
В ролях: Мануэла Веласко, Ферран Терраза, Пабло Россо, Хавьер Боте, Мануэль Брончад, Марта Карбонелл, Клаудия Фонт, Винсент Джил, Мария Ланау, Карлос Ласарте и др.
: Все журналисты жаждут сенсаций! Но начинающий телерепортёр Анжела Видал из хроники происшествий — жаждет особенно страстно. С завидным упорством она ищет уникальный материал, а потому выезжает с командой спасателей на место жуткого происшествия в большом жилом доме.
Прибыв туда, Анжела, азартно занятая работой, не сразу понимает, откуда именно она ведет свой репортаж. Осознание жуткой реальности приходит слишком поздно. Жители дома, пораженные страшным вирусом, один за другим превращаются в зомби. Чтобы зараза не вырвалась на улицы города, власти заблокировали дом — выхода нет! Но телекамера будет работать до конца…

Информация о файле

Name Репортаж
Format : AVI
Format/Info : Audio Video Interleave
File size : 1.46 GiB
Duration : 1h 15mn
Overall bit rate : 2 775 Kbps
Movie name : Репортаж / [Rec] (2007)
Director : vladaudi (BDRip 720)
Writing application : VirtualDubMod 1.5.10.2 (build 2542/release)
Copyright : HQ-ViDEO (www.hq-video.ru)
Comment : 13.06.2008
Video
ID: 0
Format : MPEG-4 Visual
Format profile : Advanced [email protected]
Format settings, BVOP : 1
Format settings, QPel : No
Format settings, GMC : No warppoints
Format settings, Matrix : Default (MPEG)
Codec ID : XVID
Codec ID/Hint XviD
Duration : 1h 15mn
Bit rate : 2 317 Kbps
Width : 720 pixels
Height : 384 pixels
Display aspect ratio : 1.875
Frame rate : 25.000 fps
Color space : YUV
Chroma subsampling : 4:2:0
Bit depth : 8 bits
Scan type : Progressive
Compression mode : Lossy
Bits/(Pixel*Frame) : 0.335
Stream size : 1.22 GiB (84%)
Writing library : XviD 1.2.0.dev47 (UTC 2006-11-01)
Audio
ID :1
Format : AC-3
Format/Info : Audio Coding 3
Mode extension : CM (complete main)
Codec ID : 2000
Duration : 1h 15mn
Bit rate mode : Constant
Bit rate : 448 Kbps
Channel(s) : 6 channels
Channel positions : Front: L C R, Side: L R, LFE
Sampling rate : 48.0 KHz
Bit depth : 16 bits
Compression mode : Lossy
Stream size : 241 MiB (16%)
Alignment : Split accross interleaves
Interleave, duration : 40 ms (1.00 video frame)
Interleave, preload duration : 500 ms
Качество: BDRip 720
Формат: AVI
Видео кодек: XviD
Аудио кодек: AC3
Видео: Bit Rate:2315Kbps Width:720 pixels Height:384 pixels Frame rate:25.000fps
Аудио: Bit Rate 44Kbps Channel:6 channels Chanel position:Front:L C R, Rear: L R,Subwoofer Sampling rate:48Khz

Скриншоты








Последний раз редактировалось: Damir23.02 (2011-07-24 11:54), всего редактировалось 6 раз(а)

Создавать темы 23-Июл-2011 12:47

[Профиль]  [ЛС] 

gennady56

Стаж: 6 лет 7 месяцев

Сообщений: 23

Симпатии: 1

скрины интересные-думаю надо посмотреть
Добавлено спустя 25 минут 49 секунд:
скорости дай только-- сразу начал раздавать и притормозил


Последний раз редактировалось: gennady56 (2011-07-23 13:23), всего редактировалось 1 раз

Создавать темы 23-Июл-2011 13:23

[Профиль]  [ЛС] 

junior

Стаж: 7 лет 10 месяцев

Сообщений: 138

Симпатии: 7

Скриншоты делайте с исходного файла и это не двд 5

Создавать темы 24-Июл-2011 10:50

[Профиль]  [ЛС] 

Lustian

Стаж: 6 лет 6 месяцев

Сообщений: 19

Фильм обалденный. Испанцы им доказали своё умение создавать хоррор. Качать не буду, ибо уже десятки раз его видел)
Но, тем кто его не видел, очень советую.

Создавать темы 25-Июл-2011 00:42

[Профиль]  [ЛС] 

sapfir

Стаж: 6 лет 6 месяцев

Сообщений: 49

скачаем, только с раздачи не уходите.


Последний раз редактировалось: sapfir (2011-08-02 00:52), всего редактировалось 1 раз

Создавать темы 02-Авг-2011 00:52

[Профиль]  [ЛС] 

stylex

Стаж: 6 лет 3 месяца

Сообщений: 41

Симпатии: 4

Вот что скажу о филме ag ag
ПОЛНЫЙ ОТСТОЙ!! КТо Хочет КАЧАТЬ не советую!!!
Всё скопирован из Карантина 1 часть!! (хотя незнаю кто у кого скопировал ab )
Но могу сказать Карантин Круче снято ay ay ay ay

Создавать темы 19-Авг-2011 14:57

[Профиль]  [ЛС] 

eeed

Стаж: 6 лет 9 месяцев

Сообщений: 63

Симпатии: 6

репортаж - испанский фильм
карантин - американский ремейк
по мне - оригинал лучше
рекомендую любителям испанского кинематографа в стиле фант/ужас/мистика - наследие вальдемара

Создавать темы 19-Авг-2011 22:38

[Профиль]  [ЛС] 

T-MoN

Стаж: 5 лет 9 месяцев

Сообщений: 27

Симпатии: 2

где скорость? 5 кб скачки...смешно! дайте скорости!

Создавать темы 07-Фев-2012 15:48

[Профиль]  [ЛС] 

T-MoN

Стаж: 5 лет 9 месяцев

Сообщений: 27

Симпатии: 2

когда уже норм раздача будет?

Создавать темы 13-Фев-2012 02:05

[Профиль]  [ЛС] 

sheroz_1993

Стаж: 5 лет 9 месяцев

Сообщений: 13

Симпатии: 1

ka4ayu uje ooooooo4en' dolgo. Nu vstan'te uje na razda4u kto nibud'...!!!

Создавать темы 18-Мар-2012 10:35

[Профиль]  [ЛС] 

sheroz_1993

Стаж: 5 лет 9 месяцев

Сообщений: 13

Симпатии: 1

ну дайте скорости плЗ

Создавать темы 18-Мар-2012 10:36

[Профиль]  [ЛС] 

Involute

Стаж: 5 лет 9 месяцев

Сообщений: 13

speed limit просто агонь =_=

Создавать темы 20-Июл-2012 19:39

[Профиль]  [ЛС] 

Grock

Стаж: 6 лет 8 месяцев

Сообщений: 637

Симпатии: 113

Ниче так фильмец, мне понравился)

Создавать темы 30-Июл-2012 11:05

[Профиль]  [ЛС] 

Casillas

Стаж: 5 лет 9 месяцев

Сообщений: 12

Симпатии: 1

раздайте, плиз, очень нужно

Создавать темы 13-Янв-2013 00:19

[Профиль]  [ЛС] 

makhmud_davutov

Стаж: 5 лет 9 месяцев

Сообщений: 5

Народ встаньте пожалуйста на раздачу, уже дней 10 пытаюсь скачать...

Создавать темы 10-Мар-2013 01:18

[Профиль]  [ЛС] 
Показать сообщения:    
Ответить на тему

Текущее время: 22-Окт 22:17

Часовой пояс: UTC + 5



Вы не можете начинать темы
Вы не можете отвечать на сообщения
Вы не можете редактировать свои сообщения
Вы не можете удалять свои сообщения
Вы не можете голосовать в опросах
Вы не можете прикреплять файлы к сообщениям
Вы не можете скачивать файлы