Доктор Хаус / House M.D. / 1-8 сезон полные(Брайан Сингер и др.) [2004-2012 г., медицина, комедия, драма, детектив, WEB-DLRip и HDTVRip] LostFilm.TV

Страницы :  1, 2, 3, 4, 5, 6, 7, 8  След.

Ответить на тему
 

Suxrob89 ®

Стаж: 7 лет 2 месяца

Сообщений: 933

Симпатии: 564

Доктор Хаус / House M.D.-1-8 сезон полные- Год выпуска: 2004-2012
Страна: США
Телеканал: FOX
Жанр: Медицина, комедия, драма, детектив
Продолжительность серии: ~43 минуты
Перевод: Профессиональный (многоголосый, закадровый) LostFilm.TV-Режиссер: Брайан Сингер, Грег Йейтанес, Деран Сарафьян и др.-В ролях: Хью Лори (Грегори Хаус), Лиза Эдельштейн (Лиза Кадди), Роберт Шон Леонард (Джеймс Уилсон), Омар Эппс (Эрик Форман), Джесси Спенсер (Роберт Чейз), Оливия Уайлд (Реми «Тринадцатая» Хадли), Питер Джейкобсон (Крис Тауб) и др.-Описание: Сериал House, M.D. рассказывает о команде врачей, которые должны правильно поставить диагноз пациенту и спасти его. В принципе сериал представляет из себя вариацию схемы «врач как детектив», но в отличие от остальных сериалов, где врачи обследуют уже мертвого пациента, в House, M.D. больной находится еще в живых.
Возглавляет команду доктор Грегори Хаус, который ходит с тростью после того, как его мышечный инфаркт в правой ноге слишком поздно правильно диагностировали. Как врач Хаус просто гений, но сам не отличается проникновенностью в общении с больными и с удовольствием избегает их, если только есть возможность. Он сам всё время проводит в борьбе с собственной болью, а трость в его руке только подчеркивает его жесткую ядовитую манеру общения. Порой его поведение можно назвать почти бесчеловечным, и при этом он прекрасный врач, обладаюший нетипичным умом и безупречным инстинктом, что снискало ему глубокое уважение. Будучи инфекционистом, он ещё и замечательный диагност, который любит разгадывать медицинские загадки, чтобы спасти кому-то жизнь. Если бы все было по его воле, то Хаус лечил бы больных не выходя из своего кабинета.
Доктор Грегори Хаус не отличается проникновенностью в общении с больными и с удовольствием избегает их, если только есть возможность. Он сам всё время проводит в борьбе с собственной болью, а трость в его руке только подчеркивает его жесткую ядовитую манеру общения. Порой его поведение можно назвать почти бесчеловечным, (Мама, а кто это ? Это сынок — подонок, который спас тебе жизнь. ) и при этом он прекрасный врач, обладаюший нетипичным умом и безупречным инстинктом, что снискало ему глубокое уважение. Будучи инфекционистом, он ещё и замечательный диагност, который любит разгадывать медицинские загадки, чтобы спасти кому-то жизнь.-Релиз от
Перевод: Relicit
Мед. редактор: Mirra
Озвучка: Студия "Кравец"
 

1-й сезон

Качество: WEB-DLRip
Формат: AVI
Видео кодек: XviD
Аудио кодек: AC3 и MP3
Видео: 624x352, 992 kbps
Аудио 1: 6 channels, 448 kbps ()
Аудио 2: 2 channels, 128 kbps ()
Аудио 3: 2 channels, 128 kbps ()

Media Info

Format : AVI
Format/Info : Audio Video Interleave
Format profile : OpenDML
Format settings : rec
File size : 533 MiB
Duration : 44mn 8s
Overall bit rate : 1 688 Kbps
Writing application : AVI-Mux GUI 1.17.8, Aug 30 2008 12:36:58
Video
ID : 0
Format : MPEG-4 Visual
Format profile : Advanced [email protected]
Format settings, BVOP : 2
Format settings, QPel : No
Format settings, GMC : No warppoints
Format settings, Matrix : Default (H.263)
Muxing mode : Packed bitstream
Codec ID : XVID
Codec ID/Hint : XviD
Duration : 44mn 8s
Bit rate : 964 Kbps
Width : 624 pixels
Height : 352 pixels
Display aspect ratio : 16:9
Frame rate : 23.976 fps
Color space : YUV
Chroma subsampling : 4:2:0
Bit depth : 8 bits
Scan type : Progressive
Compression mode : Lossy
Bits/(Pixel*Frame) : 0.183
Stream size : 304 MiB (57%)
Writing library : XviD 1.0.3 (UTC 2004-12-20)
Audio #1
ID : 1
Format : AC-3
Format/Info : Audio Coding 3
Mode extension : CM (complete main)
Codec ID : 2000
Duration : 44mn 8s
Bit rate mode : Constant
Bit rate : 448 Kbps
Channel(s) : 6 channels
Channel positions : Front: L C R, Side: L R, LFE
Sampling rate : 48.0 KHz
Bit depth : 16 bits
Compression mode : Lossy
Stream size : 141 MiB (27%)
Alignment : Aligned on interleaves
Interleave, duration : 64 ms (1.53 video frames)
Interleave, preload duration : 192 ms
Audio #2
ID : 2
Format : MPEG Audio
Format version : Version 1
Format profile : Layer 3
Mode : Joint stereo
Mode extension : MS Stereo
Codec ID : 55
Codec ID/Hint : MP3
Duration : 44mn 8s
Bit rate mode : Constant
Bit rate : 128 Kbps
Channel(s) : 2 channels
Sampling rate : 48.0 KHz
Compression mode : Lossy
Stream size : 40.4 MiB (8%)
Alignment : Aligned on interleaves
Interleave, duration : 24 ms (0.58 video frame)
Interleave, preload duration : 192 ms
Audio #3
ID : 3
Format : MPEG Audio
Format version : Version 1
Format profile : Layer 3
Mode : Joint stereo
Mode extension : MS Stereo
Codec ID : 55
Codec ID/Hint : MP3
Duration : 44mn 8s
Bit rate mode : Variable
Bit rate : 128 Kbps
Channel(s) : 2 channels
Sampling rate : 48.0 KHz
Compression mode : Lossy
Stream size : 41.7 MiB (8%)
Alignment : Aligned on interleaves
Interleave, duration : 24 ms (0.58 video frame)
Interleave, preload duration : 145 ms
Writing library : LAME3.90.
Encoding settings : -m j -V 4 -q 2 -lowpass 17.6 --abr 128

Скриншоты


2-й сезон

Качество: WEB-DLRip
Формат: AVI
Видео кодек: XviD
Аудио кодек: AC3 и MP3
Видео: 624x352, 982 kbps
Аудио 1: 6 channels, 448 kbps ()
Аудио 2: 2 channels, 128 kbps ()
Аудио 3: 2 channels, 128 kbps ()

Media Info

Format : AVI
Format/Info : Audio Video Interleave
Format profile : OpenDML
Format settings : rec
File size : 530 MiB
Duration : 43mn 27s
Overall bit rate : 1 705 Kbps
Writing application : AVI-Mux GUI 1.17.8, Aug 30 2008 12:36:58
Video
ID : 0
Format : MPEG-4 Visual
Format profile : Advanced [email protected]
Format settings, BVOP : 2
Format settings, QPel : No
Format settings, GMC : No warppoints
Format settings, Matrix : Default (H.263)
Muxing mode : Packed bitstream
Codec ID : XVID
Codec ID/Hint : XviD
Duration : 43mn 27s
Bit rate : 982 Kbps
Width : 624 pixels
Height : 352 pixels
Display aspect ratio : 16:9
Frame rate : 23.976 fps
Color space : YUV
Chroma subsampling : 4:2:0
Bit depth : 8 bits
Scan type : Progressive
Compression mode : Lossy
Bits/(Pixel*Frame) : 0.187
Stream size : 305 MiB (58%)
Writing library : XviD 1.0.3 (UTC 2004-12-20)
Audio #1
ID : 1
Format : AC-3
Format/Info : Audio Coding 3
Mode extension : CM (complete main)
Codec ID : 2000
Duration : 43mn 27s
Bit rate mode : Constant
Bit rate : 448 Kbps
Channel(s) : 6 channels
Channel positions : Front: L C R, Side: L R, LFE
Sampling rate : 48.0 KHz
Bit depth : 16 bits
Compression mode : Lossy
Stream size : 139 MiB (26%)
Alignment : Aligned on interleaves
Interleave, duration : 64 ms (1.53 video frames)
Interleave, preload duration : 192 ms
Audio #2
ID : 2
Format : MPEG Audio
Format version : Version 1
Format profile : Layer 3
Mode : Joint stereo
Mode extension : MS Stereo
Codec ID : 55
Codec ID/Hint : MP3
Duration : 43mn 27s
Bit rate mode : Constant
Bit rate : 128 Kbps
Channel(s) : 2 channels
Sampling rate : 48.0 KHz
Compression mode : Lossy
Stream size : 39.8 MiB (8%)
Alignment : Aligned on interleaves
Interleave, duration : 24 ms (0.58 video frame)
Interleave, preload duration : 192 ms
Audio #3
ID : 3
Format : MPEG Audio
Format version : Version 1
Format profile : Layer 3
Mode : Joint stereo
Mode extension : MS Stereo
Codec ID : 55
Codec ID/Hint : MP3
Duration : 43mn 27s
Bit rate mode : Variable
Bit rate : 128 Kbps
Channel(s) : 2 channels
Sampling rate : 48.0 KHz
Compression mode : Lossy
Stream size : 40.7 MiB (8%)
Alignment : Aligned on interleaves
Interleave, duration : 24 ms (0.58 video frame)
Interleave, preload duration : 146 ms
Writing library : LAME3.90.
Encoding settings : -m j -V 4 -q 2 -lowpass 17.6 --abr 128

Скриншоты

3-й сезон

Качество: WEB-DLRip
Формат: AVI
Видео кодек: XviD
Аудио кодек: MP3
Видео: 640x368, 913 kbps
Аудио 1: 2 channels, 112 kbps ()
Аудио 2: 2 channels, 128 kbps ()
Аудио 3: 2 channels, 112 kbps ()

Media Info

Format : AVI
Format/Info : Audio Video Interleave
Format profile : OpenDML
Format settings : rec
File size : 400 MiB
Duration : 43mn 55s
Overall bit rate : 1 274 Kbps
Writing application : AVI-Mux GUI 1.17.8, Aug 30 2008 12:36:58
Video
ID : 0
Format : MPEG-4 Visual
Format profile : Advanced [email protected]
Format settings, BVOP : No
Format settings, QPel : No
Format settings, GMC : No warppoints
Format settings, Matrix : Custom
Codec ID : XVID
Codec ID/Hint : XviD
Duration : 43mn 55s
Bit rate : 913 Kbps
Width : 640 pixels
Height : 368 pixels
Display aspect ratio : 16:9
Frame rate : 23.976 fps
Color space : YUV
Chroma subsampling : 4:2:0
Bit depth : 8 bits
Scan type : Progressive
Compression mode : Lossy
Bits/(Pixel*Frame) : 0.162
Stream size : 287 MiB (72%)
Writing library : XviD 1.2.0.dev47 (UTC 2006-11-01)
Audio #1
ID : 1
Format : MPEG Audio
Format version : Version 1
Format profile : Layer 3
Mode : Joint stereo
Mode extension : MS Stereo
Codec ID : 55
Codec ID/Hint : MP3
Duration : 43mn 54s
Bit rate mode : Constant
Bit rate : 112 Kbps
Channel(s) : 2 channels
Sampling rate : 48.0 KHz
Compression mode : Lossy
Stream size : 35.2 MiB (9%)
Alignment : Aligned on interleaves
Interleave, duration : 671 ms (16.09 video frames)
Interleave, preload duration : 216 ms
Writing library : LAME3.98 (alpha)
Audio #2
ID : 2
Format : MPEG Audio
Format version : Version 1
Format profile : Layer 3
Mode : Joint stereo
Mode extension : MS Stereo
Codec ID : 55
Codec ID/Hint : MP3
Duration : 43mn 55s
Bit rate mode : Constant
Bit rate : 128 Kbps
Channel(s) : 2 channels
Sampling rate : 48.0 KHz
Compression mode : Lossy
Stream size : 40.2 MiB (10%)
Alignment : Aligned on interleaves
Interleave, duration : 24 ms (0.58 video frame)
Interleave, preload duration : 192 ms
Audio #3
ID : 3
Format : MPEG Audio
Format version : Version 1
Format profile : Layer 3
Mode : Joint stereo
Mode extension : MS Stereo
Codec ID : 55
Codec ID/Hint : MP3
Duration : 43mn 55s
Bit rate mode : Constant
Bit rate : 112 Kbps
Channel(s) : 2 channels
Sampling rate : 44.1 KHz
Compression mode : Lossy
Stream size : 35.2 MiB (9%)
Alignment : Aligned on interleaves
Interleave, duration : 671 ms (16.09 video frames)
Interleave, preload duration : 208 ms
Writing library : LAME3.97
Encoding settings : -m j -V 4 -q 2 -lowpass 15.6 -b 112

Скриншоты


4-й сезон

Качество: HDTVRip
Формат: AVI
Видео кодек: XviD
Аудио кодек: MP3
Видео: 624x352, 934 kbps
Аудио: 2 channels, 128 kbps ()

Media Info

Format : AVI
Format/Info : Audio Video Interleave
File size : 331 MiB
Duration : 43mn 0s
Overall bit rate : 1 075 Kbps
Writing application : Nandub v1.0rc2
Writing library : Nandub build 1853/release
Video
ID : 0
Format : MPEG-4 Visual
Format profile : Advanced [email protected]
Format settings, BVOP : 2
Format settings, QPel : No
Format settings, GMC : No warppoints
Format settings, Matrix : Default (H.263)
Muxing mode : Packed bitstream
Codec ID : XVID
Codec ID/Hint : XviD
Duration : 43mn 0s
Bit rate : 934 Kbps
Width : 624 pixels
Height : 352 pixels
Display aspect ratio : 16:9
Frame rate : 23.976 fps
Color space : YUV
Chroma subsampling : 4:2:0
Bit depth : 8 bits
Scan type : Progressive
Compression mode : Lossy
Bits/(Pixel*Frame) : 0.177
Stream size : 287 MiB (87%)
Writing library : XviD 1.2.0.dev47 (UTC 2006-11-01)
Audio
ID : 1
Format : MPEG Audio
Format version : Version 1
Format profile : Layer 3
Mode : Joint stereo
Mode extension : MS Stereo
Codec ID : 55
Codec ID/Hint : MP3
Duration : 43mn 0s
Bit rate mode : Constant
Bit rate : 128 Kbps
Channel(s) : 2 channels
Sampling rate : 48.0 KHz
Compression mode : Lossy
Stream size : 39.4 MiB (12%)
Alignment : Aligned on interleaves
Interleave, duration : 24 ms (0.58 video frame)
Interleave, preload duration : 480 ms

Скриншоты


5-й сезон

Качество: HDTVRip
Формат: AVI
Видео кодек: XviD
Аудио кодек: MP3
Видео: 624x352, 980 kbps
Аудио: 2 channels, 128 kbps ()

Media Info

Format : AVI
Format/Info : Audio Video Interleave
File size : 347 MiB
Duration : 43mn 20s
Overall bit rate : 1 121 Kbps
Writing application : Nandub v1.0rc2
Writing library : Nandub build 1853/release
Video
ID : 0
Format : MPEG-4 Visual
Format profile : Advanced [email protected]
Format settings, BVOP : 2
Format settings, QPel : No
Format settings, GMC : No warppoints
Format settings, Matrix : Default (H.263)
Muxing mode : Packed bitstream
Codec ID : XVID
Codec ID/Hint : XviD
Duration : 43mn 20s
Bit rate : 980 Kbps
Width : 624 pixels
Height : 352 pixels
Display aspect ratio : 16:9
Frame rate : 23.976 fps
Color space : YUV
Chroma subsampling : 4:2:0
Bit depth : 8 bits
Scan type : Progressive
Compression mode : Lossy
Bits/(Pixel*Frame) : 0.186
Stream size : 304 MiB (87%)
Writing library : XviD 1.2.1 (UTC 2008-12-04)
Audio
ID : 1
Format : MPEG Audio
Format version : Version 1
Format profile : Layer 3
Mode : Joint stereo
Mode extension : MS Stereo
Codec ID : 55
Codec ID/Hint : MP3
Duration : 43mn 20s
Bit rate mode : Constant
Bit rate : 128 Kbps
Channel(s) : 2 channels
Sampling rate : 48.0 KHz
Compression mode : Lossy
Stream size : 39.7 MiB (11%)
Alignment : Aligned on interleaves
Interleave, duration : 24 ms (0.58 video frame)
Interleave, preload duration : 480 ms

Скриншоты


6-й сезон

Качество: WEB-DLRip
Формат: AVI
Видео кодек: XviD
Аудио кодек: MP3
Видео: 720x406, 1 024 kbps
Аудио 1: 2 channels, 128 kbps ()
Аудио 2: 2 channels, 128 kbps ()

Media Info

Format : AVI
Format/Info : Audio Video Interleave
File size : 406 MiB
Duration : 43mn 54s
Overall bit rate : 1 294 Kbps
Writing application : VirtualDubMod 1.5.10.2 (build 2542/release)
Writing library : VirtualDubMod build 2542/release
Video
ID : 0
Format : MPEG-4 Visual
Format profile : Advanced [email protected]
Format settings, BVOP : 1
Format settings, QPel : No
Format settings, GMC : No warppoints
Format settings, Matrix : Default (MPEG)
Codec ID : XVID
Codec ID/Hint : XviD
Duration : 43mn 54s
Bit rate : 1 024 Kbps
Width : 720 pixels
Height : 406 pixels
Display aspect ratio : 16:9
Frame rate : 23.976 fps
Color space : YUV
Chroma subsampling : 4:2:0
Bit depth : 8 bits
Scan type : Progressive
Compression mode : Lossy
Bits/(Pixel*Frame) : 0.146
Stream size : 321 MiB (79%)
Writing library : XviD 1.2.1 (UTC 2008-12-04)
Audio #1
ID : 1
Format : MPEG Audio
Format version : Version 1
Format profile : Layer 3
Mode : Joint stereo
Mode extension : MS Stereo
Codec ID : 55
Codec ID/Hint : MP3
Duration : 43mn 54s
Bit rate mode : Constant
Bit rate : 128 Kbps
Channel(s) : 2 channels
Sampling rate : 48.0 KHz
Compression mode : Lossy
Stream size : 40.2 MiB (10%)
Alignment : Aligned on interleaves
Interleave, duration : 42 ms (1.00 video frame)
Interleave, preload duration : 504 ms
Audio #2
ID : 2
Format : MPEG Audio
Format version : Version 1
Format profile : Layer 3
Mode : Joint stereo
Mode extension : MS Stereo
Codec ID : 55
Codec ID/Hint : MP3
Duration : 43mn 54s
Bit rate mode : Constant
Bit rate : 128 Kbps
Channel(s) : 2 channels
Sampling rate : 48.0 KHz
Compression mode : Lossy
Stream size : 40.2 MiB (10%)
Alignment : Aligned on interleaves
Interleave, duration : 42 ms (1.00 video frame)
Interleave, preload duration : 504 ms
Writing library : LAME3.88 (beta)

Скриншоты


7-й сезон

Качество: WEB-DLRip
Формат: AVI
Видео кодек: XviD
Аудио кодек: MP3
Видео: 720x400, 1 165 kbps
Аудио: 2 channels, 192 kbps ()

Media Info

Format : AVI
Format/Info : Audio Video Interleave
File size : 432 MiB
Duration : 44mn 8s
Overall bit rate : 1 369 Kbps
Writing application : Nandub v1.0rc2
Writing library : Nandub build 1853/release
Video
ID : 0
Format : MPEG-4 Visual
Format profile : [email protected]
Format settings, BVOP : No
Format settings, QPel : No
Format settings, GMC : No warppoints
Format settings, Matrix : Default (H.263)
Codec ID : XVID
Codec ID/Hint : XviD
Duration : 44mn 8s
Bit rate : 1 165 Kbps
Width : 720 pixels
Height : 400 pixels
Display aspect ratio : 16:9
Frame rate : 23.976 fps
Color space : YUV
Chroma subsampling : 4:2:0
Bit depth : 8 bits
Scan type : Progressive
Compression mode : Lossy
Bits/(Pixel*Frame) : 0.169
Stream size : 368 MiB (85%)
Writing library : XviD 1.2.1 (UTC 2008-12-04)
Audio
ID : 1
Format : MPEG Audio
Format version : Version 1
Format profile : Layer 3
Mode : Joint stereo
Mode extension : MS Stereo
Codec ID : 55
Codec ID/Hint : MP3
Duration : 44mn 7s
Bit rate mode : Variable
Bit rate : 192 Kbps
Channel(s) : 2 channels
Sampling rate : 48.0 KHz
Compression mode : Lossy
Stream size : 60.2 MiB (14%)
Alignment : Aligned on interleaves
Interleave, duration : 24 ms (0.58 video frame)
Interleave, preload duration : 467 ms
Writing library : LAME3.97b
Encoding settings : -m j -V 4 -q 3 -lowpass 18.6 --abr 192

Скриншоты


8-й сезон

Качество: WEB-DLRip
Формат: AVI
Видео кодек: XviD
Аудио кодек: AC3
Видео: 720x400, 1 900 kbps
Аудио 1: 2 channels, 192 kbps ()
Аудио 2: 2 channels, 192 kbps ()

Media Info

Format : AVI
Format/Info : Audio Video Interleave
File size : 722 MiB
Duration : 43mn 55s
Overall bit rate : 2 298 Kbps
Writing application : VirtualDubMod 1.5.10.2 (build 2540/release)
Writing library : VirtualDubMod build 2540/release
Video
ID : 0
Format : MPEG-4 Visual
Format profile : Advanced [email protected]
Format settings, BVOP : 1
Format settings, QPel : No
Format settings, GMC : No warppoints
Format settings, Matrix : Default (MPEG)
Codec ID : XVID
Codec ID/Hint : XviD
Duration : 43mn 55s
Bit rate : 1 900 Kbps
Width : 720 pixels
Height : 400 pixels
Display aspect ratio : 16:9
Frame rate : 23.976 fps
Color space : YUV
Chroma subsampling : 4:2:0
Bit depth : 8 bits
Scan type : Progressive
Compression mode : Lossy
Bits/(Pixel*Frame) : 0.275
Stream size : 597 MiB (83%)
Writing library : XviD 1.2.1 (UTC 2008-12-04)
Audio #1
ID : 1
Format : AC-3
Format/Info : Audio Coding 3
Mode extension : CM (complete main)
Codec ID : 2000
Duration : 43mn 55s
Bit rate mode : Constant
Bit rate : 192 Kbps
Channel(s) : 2 channels
Channel positions : Front: L R
Sampling rate : 48.0 KHz
Bit depth : 16 bits
Compression mode : Lossy
Stream size : 60.3 MiB (8%)
Alignment : Split accross interleaves
Interleave, duration : 42 ms (1.00 video frame)
Interleave, preload duration : 500 ms
Audio #2
ID : 2
Format : AC-3
Format/Info : Audio Coding 3
Mode extension : CM (complete main)
Codec ID : 2000
Duration : 43mn 55s
Bit rate mode : Constant
Bit rate : 192 Kbps
Channel(s) : 2 channels
Channel positions : Front: L R
Sampling rate : 48.0 KHz
Bit depth : 16 bits
Compression mode : Lossy
Stream size : 60.3 MiB (8%)
Alignment : Split accross interleaves
Interleave, duration : 42 ms (1.00 video frame)
Interleave, preload duration : 500 ms

Скриншоты




Последний раз редактировалось: Suxrob89 (2013-12-21 09:19), всего редактировалось 11 раз(а)

Создавать темы 23-Июл-2011 14:26

[Профиль]  [ЛС] 

Suxrob89 ®

Стаж: 7 лет 2 месяца

Сообщений: 933

Симпатии: 564

Можеть озолотите !!!

Создавать темы 23-Июл-2011 14:28

[Профиль]  [ЛС] 

MisterKO

Стаж: 6 лет 8 месяцев

Сообщений: 7

Блин такое добро пропадает дайте золото плизз

Создавать темы 23-Июл-2011 17:55

[Профиль]  [ЛС] 

Pendalf

Стаж: 6 лет 4 месяца

Сообщений: 416

Симпатии: 34

MisterKO
+100500 модеры озолотите плз)

Создавать темы 23-Июл-2011 23:21

[Профиль]  [ЛС] 

Dr. Hous

Стаж: 6 лет 11 месяцев

Сообщений: 76

Симпатии: 3

Дайте скорости!!!

Создавать темы 28-Июл-2011 10:34

[Профиль]  [ЛС] 

Temp

Стаж: 6 лет 8 месяцев

Сообщений: 10

Скорость пожалуйста!

Создавать темы 04-Авг-2011 21:25

[Профиль]  [ЛС] 

Эмина

Стаж: 6 лет 5 месяцев

Сообщений: 23

Симпатии: 1

народ дайте скорости пожалуйста

Создавать темы 11-Авг-2011 17:37

[Профиль]  [ЛС] 

hondik

Стаж: 6 лет 6 месяцев

Сообщений: 9

kak kachat u menya ne poluchayetsa? v chem problema??ne mogi skachat torrent fayl?

Создавать темы 01-Сен-2011 20:01

[Профиль]  [ЛС] 

BotYa™

Стаж: 7 лет 4 месяца

Сообщений: 117

Симпатии: 5

Фильм реально классный 10 из 10 !
Кто не видел промо ролик 8го сезона смотрим
Говорят 8 сезон будет в зоне, как "побег из тюрьмы" это уже сразу тянет на себе...

Новости

House M.D. (Доктор Хаус): Дэвид Шор о начале 8 сезона


Дэвид Шор (создатель, продюсер и сценарист House M.D.) ответил на вопросы корреспондента сайта tvline.com о предстоящем 8 сезоне сериала House M.D. (Доктор Хаус).
Эксклюзив: Босс «Хауса» о потере Лизы (и Оливии), возврате к основным ценностям сериала и возможном воссоединении Хадди в финале сериала.
В то время как «Хаус» подходит к своему, возможно, финальному раунду на телеэкранах, создатель сериала, Дэвид Шор, полон решимости заставить сердце своего детища биться снова. Это означает, что внимание будет снова уделяться медицинским случаям и, что важнее всего, лично доктору Брюзге. Но сначала необходимо разобраться с последствиями событий по обе стороны экрана: кармагеддоном в финале и уходом Лизы Эдельштейн. В интервью ниже Дэвид Шор рассказывает, почему отправляет Хауса прямиком в тюрьму, о новичках в Принстон Плейнсборо, и отвечает на вопрос, который не дает мне покоя с мая месяца: вернется ли Кадди прежде, чем «Хаус» навсегда уйдет с экранов.
TVLINE: Просочилась информация (через TVLine), что вакантную должность декана медицины займет персонаж, знакомый фанатам «Хауса», вместо того, чтобы всучить зрителям кого-то нового. Это ваш способ признать то, что новичку будет тяжело выдержать сравнение?
Да. У нас было довольно интересное межсезонье. Уход Лизы не входил в наши планы. Этого и в мыслях не было. На нас свалились некоторые события, которые мне совсем не понравились. Но мы собрались в комнате сценаристов, обсудили нелегкие задачи, что стояли перед нами, и, думаю, придумали действительно интересное начало для нового сезона, что оказалось очень захватывающим. Должность декана весьма непроста, она была в сериале с первого дня. Лиза прекрасно справилась с ней, и мы не хотели попросту поставить на нее кого-то другого. И нам не нужен был очередной полковник Клинк (смеется). Персонаж был хорошо сбалансирован, поэтому мы решили остановиться на ком-то из окружения Хауса, вместо того, чтобы воссоздать Кадди и поставить актера или актрису в незавидное положение сравнения с ней, что определенно произошло бы. Это позволяет нам поместить персонажа, знакомого зрителям, в новую ситуацию, а Хаусу – оценить результат. Это полностью меняет динамику между персонажами.
TVLINE | Вы изначально планировали начать сезон с Хауса в тюрьме?
Нет. Конечно, это было одной из возможностей, но не изначальным решением.
TVLINE | Сыграла ли реакция фанатов на события финала – в особенности необходимость для Хауса расплатиться за содеянное – роль в вашем решении?
Ну какая-то доля правды в этом есть (смеется). У меня четкое ощущение, что Хаус никого не собирался убивать. Это был определенно жестокий поступок. И, конечно, безответственный поступок. Но я действительно считаю, что он не пытался кого-либо убить. Он повел себя жестоко, что само по себе безответственно. Я также уверен, что в сериале такие действия должны иметь последствия. И Хаусу придется платить по счетам. Нам также хотелось посмотреть, насколько сильно Хаус чувствует ответственность по поводу случившегося. Он никогда бы это открыто не признал, но чувство есть.
TVLINE | Как долго он пробудет за решеткой?
Немало. Речь идет о месяцах, не днях.
TVLINE | А по количеству эпизодов…
Не много. События восьмого сезона начинаются через много месяцев после окончания седьмого. И мы хотим вернуться к истокам нашего сериала. Сериал не о Хаусе в тюрьме. Хотя, он должен быть там (смеется). Но сериал не об этом. Поэтому мы хотим вернуться к основным ценностям сериала как можно скорее, но, разумеется, в немного изменившихся обстоятельствах.
TVLINE | Думаете, сериал отошел от основных ценностей в прошлом сезоне со всеми этими Хаус-Кадди отношениями?
Нам нужно было пройти этот путь, и я горжусь тем, как мы его прошли, несмотря на то, что в какой-то мере были и крайности. Но что я всегда любил в сериале, так это персонаж Хауса и то, как он реагирует не столько на романтические отношения, сколько на более глубокие вопросы жизни и смерти, вопросы, что есть правильно, а что – нет, вопросы, как жить праведной, нравственной жизнью. И как он взаимодействует с пациентами, появляющимися каждую неделю, и с окружающими его людьми. Мы возвращаемся к истокам медицинских случаев и историй персонажей. Речь не столько о медицине, сколько о людях.
TVLINE | Кстати о персонажах. Я заинтригован выбором Чарлин Йи. Довольно неожиданный выбор, мягко говоря.
Это сыграло большую роль в том, почему мы ее взяли. Мы видели некоторые ее номера – в ней есть причудливая, интересная индивидуальность и, в то же время, настоящая и вызывающая симпатию. Мы также хотели представить зрителям персонажа, пришедшего из Старого Света. Чарлин оказалась идеальным вариантом.
TVLINE | Полагаю, приход обеих – Йи и нового утенка, Одетт Эннэйбл – означает, что Оливия Уайльд будет не часто появляться в этом сезоне?
К сожалению, не часто. Она теперь звезда большого кино.
TVLINE | Мы говорим об одном-двух эпизодах?
Около того. Не хочу рассказывать слишком много, но я также не хочу вводить зрителей в заблуждение. Мне жаль терять ее, но, опять же, это не наш выбор. В конце прошлого сезона произошли события, которые меня не обрадовали, и я не был к ним готов. Но я хочу сказать, что мы очень счастливы от того, каким будет будущий сезон. Он оказался сезоном серьезных возможностей. Мы делаем действительно классное начало сезона, и оно вольет свежую кровь в сериал, хотя, не скажу, что мы в ней нуждались.
TVLINE | Вам удалось прийти к логическому завершению Хадди-линии?
Просто прошло время, это и стало завершением. Есть завершение в виде последствий.
TVLINE | Вы рассматриваете будущий сезон как последний?
Не на данном этапе. Фокс хочет еще сезон. Думаю, многие наши зрители хотят еще сезон. Universal Media Studios хочет еще сезон. Но восьмой сезон вполне может стать последним. И мы будем об этом знать скорее рано, чем поздно, потому, что я хочу завершить сериал как следует.
TVLINE | Вы хотели бы видеть Лизу в финале сериала?
Я был бы рад этому.
TVLINE | Думаете, это реально?
Честно говоря, не знаю.

House M.D. (Доктор Хаус): 8 сезон без Кадди!


Фанаты сериала «Доктор Хаус» (House M.D.) рыдайте!
Из сериала уходит актриса Lisa Edelstein (Кадди)! Она не вернется в 8 сезоне! Что-то подсказывает, что восьмой сезон действительно может стать последним сезоном сериала.
В текущем, седьмом сезоне у актрисы заканчивается контракт, и актриса отказалась его продлевать. Эдельштейн заявила, что ее решение стало результатом «долгих размышлений». Она отметила, что, с одной стороны, ей очень жаль расставаться с персонажем, которого она с удовольствием играла все семь лет, однако, с другой стороны, она рада новым возможностям (в качестве как актера, так и продюсера), которые ей принесет уход из сериала.
Примечательно, что об усталости от собственной роли в сериале ранее уже заявлял Хью Лори. Он сказал, что не намерен продлевать собственный контракт, который у него заканчивается как раз после восьмого сезона. По его словам, сценарий позволяет завершить шоу на восьмом сезоне. Что будет со сценарием нового сезона после ухода актрисы, неизвестно. ©
Прощай Кадди! Прощай Хауз?

House M.D.: Что будет в 8 сезоне «Доктора Хауса»?


Стали известны подробности о том, что будет в 8 сезоне сериала House M.D. («Доктор Хаус»)!
Информация спойлерная, так что подумайте стоит ли вам ее читать…Восьмой сезон «Доктора Хауса»:
Уилсон станет главврачом вместо Кадди,
Хаус попадает в тюрьму!
До выхода первого эпизода восьмого и, возможно, заключительного сезона популярного во всем мире американского телесериала «Доктор Хаус» осталось еще несколько месяцев, но исполнитель главной роли Хью Лори уже вернулся в Лос-Анджелес из отпуска, а поклонники уже заметили фургоны съемочной группы сериала возле тюрьмы, сообщает ресурс TVLine.
Это неудивительно, учитывая последние слова Кадди (Лиза Эдельштейн): «Полицейские арестуют этого ублюдка, если он ступит хотя бы на порог Принстон-Плейнсборо снова». Однако остаются вопросы: это финал сезона или его начало, был ли суд и как долго Хаус будет находиться под следствием до того, как вернется в Принстон-Плейнсборо?
Издание считает, что тюрьма для Хауса – гениальная задумка сценаристов. Это, с одной стороны, успокоит фанатов, которые были в шоке от его поступка, с другой – нейтрализует поклонников Кадди.
Уже несколько месяцев известно, что Лиза Эдельштейн ушла из сериала, так что создателям сериала пришлось восполнять потерю в женском составе и решать, кто же заменит Кадди на посту главврача клиники и непосредственного начальника Хауса.
На этой неделе стало известно о пополнении коллектива – в новом сезоне в него войдет Одетт Эннэйбл, известная зрителям также под девичьей фамилией Юстман, сообщает NEWSru Israel.
Сообщается, что Одетт досталась роль врача, работающего в тюрьме. Другие подробности о ее персонаже тщательно скрываются создателями сериала.
Уроженка Лос-Анджелеса Одетт Джульетта Юстман очень рано начала свою кинокарьеру: 5-летней девочкой она сыграла эпизодическую роль в фильме «Детсадовский полицейский» (с Арнольдом Шварценеггером в главной роли). Учась в пятом классе, она еще дважды снималась в кино. Но потом был длительный перерыв. После школы Одетт пробовала сделать карьеру модели, была победительницей местного конкурса красоты. Но пять лет назад она вернулась в Голливуд, сыграв с тех пор в 12 картинах и шести телесериалах («Доктор Хаус» будет седьмым).
Что касается нового главврача Принстон-Плейнсборо, то в конце июня создатель сериала Дэвид Шор не исключил возможности выдвинуть на это место Уилсона (Роберт Шон Леонард).
Ранее Шор признал, что действительно разочарован решением Эдельштейн покинуть шоу, сообщало в июне издание Inside TV. «Я все еще не оправился от этого», – признался он. «Но мы собрались всего несколько дней назад… чтобы спланировать первую половину следующего сезона. У нас идут очень открытые дискуссии о том, что мы собираемся сделать».
В результате сейчас можно говорить о том, что Шор снял бы другой финал седьмого сезона, если бы ему были известны планы Эдельштейн. «Я не знаю, как бы я изменил концовку закончившегося сезона», – признался Шор в интервью, которое он давал во время благотворительного вечера, организованного Гильдией сценаристов: «Не представляю, какой бы она была. Возможно, я бы сильнее сконцентрировался на персонаже Лизы. Я очень разочарован. Я до сих пор не могу придти в себя от этой новости, но пару дней назад мы снова начали встречаться со сценаристами, как обычно в это время года, и у нас было несколько серьезных обсуждений того, как мы собираемся выпутаться из сложившейся ситуации».
Сценарист сериала Питер Блейк, писавший сценарий к последней серии вместе с Шором, сказал, что объяснение исчезновения Лизы стало для них несложным сценарным ходом. «Честно говоря, если бы Лиза продолжила сниматься в сериале, ответить на вопрос «Что же будет с Кадди?» было бы гораздо сложнее», – сказал Блейк: «Другое дело, что мы потеряли важного персонажа, с которым были связаны многие сценарные ходы. Чисто с точки зрения сценария, исчезновение Кадди ничем не оправдано. Ведь отношения Хауса с Кадди были одной из причин, почему зрители смотрели сериал. Они были одним из направляющих векторов сериала, одним из главных факторов, почему сериал до сих пор был в эфире».
Не совсем понятными остаются перспективы в сериале Оливии Уайлд («Тринадцать»). Еще в мае Дэвид Шор говорил: «Я жду, что она вернется, но не уверен, надолго ли». В любом случае, если Оливия решит покинуть Хауса, у создателей не будет проблем с сюжетными ходами. Известно, что ее героиня давно и неизлечимо больна, и «убить» ее не составит никакого труда.
Что касается Джесси Спенсера (роль доктора Чейза), то он уже подписал контракт на восьмой сезон, первый эпизод которого выйдет 3 октября.
Лиза Эдельштейн вернется на экраны в «Хорошей жене»!
После ухода из сериала Лиза Эдельштейн не осталась без работы. Как стало известно еще в июне, актриса снимется в сериале «Хорошая жена» производства CBS в роли юриста, прирожденного игрока в покер, чья сексуальность удачно дополняется очевидным интеллектом.
Она уже подписала контракт на несколько эпизодов. Персонаж Лизы, пока еще не понятно каким образом, будет связан с прошлым Уилла (Уилл Гарднер – старый друг главной героини, Алисии, который взял ее на работу в свою юридическую фирму) и появится в самых первых эпизодах 3-го сезона.
Главную роль в «Хорошей жене» играет Джулианна Маргулис, звезда из некогда популярного медицинского сериала «Скорая помощь».

Новости о сериале «Побег»


Началась работа над вторым сезоном сериала «Побег».
Как известно, «Побег» является российской версией американского телехита Prison Break («Побег из тюрьмы»). Оригинал состоит из четырех сезонов, вот и создатели русского сериала-побратима решили не отставать и приступили к съемкам новых серий.
В центре сюжета по-прежнему два брата, Кирилл Панин (Владимир Епифанцев) и Алексей Чернов (Юрий Чурсин). Первый, как наверняка помнят поклонники сериала, попал в тюрьму за преступление, которого не совершал, а второй весьма оригинальным способом решил подарить заключенному свободу. К двум основным персонажам добавятся еще два – их играют актеры Сергей Угрюмов и Азиз Бейшеналиев. Произойдет замена и на капитанском мостике – вместо снимавшего первый сезон Андрея Малюкова проектом займутся сразу два режиссера Зиновий Ройзман и Вячеслав Никифоров.
Создатели обещают, что, как и в первом сезоне, мы увидим множество экшн-сцен – трюков, драк, погонь. География съемок тоже будет обширной. Например, в ближайшие дни в районе «Москва-Сити» в башне «Федерация» будет сниматься сцена убийства. А в июне съемочная группа совершит экспедицию в Крым.
Точная дата премьеры пока неизвестна. Скорее всего, второй сезон «Побега» мы начнем смотреть на Первом канале осенью.
© Первый канал


Последний раз редактировалось: BotYa™ (2011-09-01 23:19), всего редактировалось 2 раз(а)

Создавать темы 01-Сен-2011 22:50

[Профиль]  [ЛС] 

Pendalf

Стаж: 6 лет 4 месяца

Сообщений: 416

Симпатии: 34

Зарегайте торрент и встаньте на раздачу кто-нибудь плз

Создавать темы 01-Сен-2011 22:53

[Профиль]  [ЛС] 

Pendalf

Стаж: 6 лет 4 месяца

Сообщений: 416

Симпатии: 34

дайте раздачу люди!!

Создавать темы 14-Сен-2011 22:54

[Профиль]  [ЛС] 

Gerrard

Стаж: 6 лет 7 месяцев

Сообщений: 23

Симпатии: 1

у меня есть все сезоны но к раздаче присоединиться не моги а создавать новую наверное скажут что повтор

Создавать темы 22-Сен-2011 18:34

[Профиль]  [ЛС] 

mdj

Стаж: 6 лет 4 месяца

Сообщений: 13

Встаньте на раздачу кто-нить!

Создавать темы 23-Сен-2011 00:20

[Профиль]  [ЛС] 

Gerrard

Стаж: 6 лет 7 месяцев

Сообщений: 23

Симпатии: 1

нельзя встать на раздачу торрент фаил не качается (((

Создавать темы 23-Сен-2011 11:29

[Профиль]  [ЛС] 

mdj

Стаж: 6 лет 4 месяца

Сообщений: 13

Gerrard
Выложите хотяб 6-7 сезоны. Пожалуйста.

Создавать темы 23-Сен-2011 19:21

[Профиль]  [ЛС] 
Показать сообщения:    
Ответить на тему

Текущее время: 22-Окт 02:27

Часовой пояс: UTC + 5



Вы не можете начинать темы
Вы не можете отвечать на сообщения
Вы не можете редактировать свои сообщения
Вы не можете удалять свои сообщения
Вы не можете голосовать в опросах
Вы не можете прикреплять файлы к сообщениям
Вы не можете скачивать файлы