Топ Гир (Сезон 17) / Top Gear (Season 17) (Брайан Клейн) Все 6 серий [2011 г., Документальный, FLV (Рип с HDTV 720p)]

Страницы :  1, 2  След.

Ответить на тему
 

Mixer City ®

Стаж: 6 лет 7 месяцев

Сообщений: 754

Симпатии: 63

Топ Гир (Сезон 17) / Top Gear (Season 17)--Полный сезон (Все 6 серий)--
Год выпуска :: 2011
Жанр :: Документальный, всё более комедийный
Продолжительность :: В среднем 60 мин
Перевод :: Профессиональный (многоголосый, закадровый)
Озвучание :: Jetvis Studio--Режиссер :: Брайан Клейн-В ролях :: Джереми Кларксон, Ричард Хаммонд, Джеймс Мэй и Стиг-Описание :: Авто-шоу «Top Gear» — программа абсолютно новой формации для телезрителей прогрессивного толка. В ней нет занудных советов автолюбителям, да и банального cлова «автолюбитель» в ней тоже нет. Это программа для настоящих фанатов роскошных, безумно дорогих и самых быстрых автомобилей, для настоящих ценителей запаха бензина и пылающих тормозных дисков, для тех, кому не безразличен экстремальный драйв.--Качество: Flash Video [Рип с HDTV 720p]
Остальное: Под спойлерами к каждой серии отдельно Media Info и Скриншоты

Серия 01 :: Гость программы - американский рок-музыкант Элис Купер

Media Info

General
Complete name : Top.Gear.S17E01.rus.Jetvis.Studio.flv
Format : Flash Video
File size : 295 MiB
Duration : 1h 1mn
Overall bit rate : 673 Kbps
Tagged date : UTC 2011-06-29 08:24:54
Tagging application : GOM ENCODER (GFlv4Writer 1.0)
Video
Format : AVC
Format/Info : Advanced Video Codec
Format profile : [email protected]
Format settings, CABAC : Yes
Format settings, ReFrames : 1 frame
Codec ID : 7
Duration : 1h 1mn
Bit rate : 600 Kbps
Width : 720 pixels
Height : 400 pixels
Display aspect ratio : 16:9
Frame rate mode : Constant
Frame rate : 25.000 fps
Color space : YUV
Chroma subsampling : 4:2:0
Bit depth : 8 bits
Scan type : Progressive
Bits/(Pixel*Frame) : 0.083
Stream size : 263 MiB (89%)
Audio
Format : MPEG Audio
Format version : Version 1
Format profile : Layer 3
Mode : Joint stereo
Mode extension : MS Stereo
Codec ID : 2
Codec ID/Hint : MP3
Duration : 1h 1mn
Bit rate mode : Constant
Bit rate : 64.0 Kbps
Channel(s) : 2 channels
Sampling rate : 44.1 KHz
Compression mode : Lossy
Stream size : 28.1 MiB (10%)

Скриншоты



Серия 02 :: Знаменитость в бюджетном авто - Росс Нобл

Media Info

General
Complete name : Top.Gear.S17E02.rus.Jetvis.Studio.flv
Format : Flash Video
File size : 302 MiB
Duration : 1h 2mn
Overall bit rate : 672 Kbps
Tagged date : UTC 2011-07-06 19:42:43
Tagging application : GOM ENCODER (GFlv4Writer 1.0)
Video
Format : AVC
Format/Info : Advanced Video Codec
Format profile : [email protected]
Format settings, CABAC : Yes
Format settings, ReFrames : 1 frame
Codec ID : 7
Duration : 1h 2mn
Bit rate : 599 Kbps
Width : 720 pixels
Height : 400 pixels
Display aspect ratio : 16:9
Frame rate mode : Constant
Frame rate : 25.000 fps
Color space : YUV
Chroma subsampling : 4:2:0
Bit depth : 8 bits
Scan type : Progressive
Bits/(Pixel*Frame) : 0.083
Stream size : 269 MiB (89%)

Скриншоты



Серия 03 :: Гонщик Формулы-1 в бюджетном авто - Себастьян Феттель

Media Info

General
Complete name : Top.Gear.S17E03.rus.Jetvis.Studio.flv
Format : Flash Video
File size : 296 MiB
Duration : 1h 1mn
Overall bit rate : 673 Kbps
Tagged date : UTC 2011-07-15 18:52:25
Tagging application : GOM ENCODER (GFlv4Writer 1.0)
Video
Format : AVC
Format/Info : Advanced Video Codec
Format profile : [email protected]
Format settings, CABAC : Yes
Format settings, ReFrames : 1 frame
Codec ID : 7
Duration : 1h 1mn
Bit rate : 600 Kbps
Width : 720 pixels
Height : 400 pixels
Display aspect ratio : 16:9
Frame rate mode : Constant
Frame rate : 25.000 fps
Color space : YUV
Chroma subsampling : 4:2:0
Bit depth : 8 bits
Scan type : Progressive
Bits/(Pixel*Frame) : 0.083
Stream size : 264 MiB (89%)

Скриншоты



Серия 04 :: Самый долгожданный гость программы - Роуэн Аткинсон (Исполнитель ролей Мистера Бина и Джонни Инглиша)

Media Info

General
Complete name : Top.Gear.S17E04.rus.Jetvis.Studio.flv
Format : Flash Video
File size : 294 MiB
Duration : 1h 1mn
Overall bit rate : 672 Kbps
Tagged date : UTC 2011-07-23 18:48:42
Tagging application : GOM ENCODER (GFlv4Writer 1.0)
Video
Format : AVC
Format/Info : Advanced Video Codec
Format profile : [email protected]
Format settings, CABAC : Yes
Format settings, ReFrames : 1 frame
Codec ID : 7
Duration : 1h 1mn
Bit rate : 599 Kbps
Width : 624 pixels
Height : 352 pixels
Display aspect ratio : 16:9
Frame rate mode : Constant
Frame rate : 25.000 fps
Color space : YUV
Chroma subsampling : 4:2:0
Bit depth : 8 bits
Scan type : Progressive
Bits/(Pixel*Frame) : 0.109
Stream size : 262 MiB (89%)
Audio
Format : MPEG Audio
Format version : Version 1
Format profile : Layer 3
Mode : Joint stereo
Mode extension : MS Stereo
Codec ID : 2
Codec ID/Hint : MP3
Duration : 1h 1mn
Bit rate mode : Constant
Bit rate : 64.0 Kbps
Channel(s) : 2 channels
Sampling rate : 44.1 KHz
Compression mode : Lossy
Stream size : 28.0 MiB (10%)

Скриншоты



Серия 05 :: Гость студии - музыкант Боб Гелдоф

Media Info

General
Complete name : Top.Gear.S17E05.rus.Jetvis.Studio.flv
Format : Flash Video
File size : 285 MiB
Duration : 59mn 2s
Overall bit rate : 676 Kbps
Tagged date : UTC 2011-08-01 18:05:58
Tagging application : GOM ENCODER (GFlv4Writer 1.0)
Video
Format : AVC
Format/Info : Advanced Video Codec
Format profile : [email protected]
Format settings, CABAC : Yes
Format settings, ReFrames : 1 frame
Codec ID : 7
Duration : 59mn 2s
Bit rate : 603 Kbps
Width : 624 pixels
Height : 352 pixels
Display aspect ratio : 16:9
Frame rate mode : Constant
Frame rate : 25.000 fps
Color space : YUV
Chroma subsampling : 4:2:0
Bit depth : 8 bits
Scan type : Progressive
Bits/(Pixel*Frame) : 0.110
Stream size : 255 MiB (89%)
Audio
Format : MPEG Audio
Format version : Version 1
Format profile : Layer 3
Mode : Joint stereo
Mode extension : MS Stereo
Codec ID : 2
Codec ID/Hint : MP3
Duration : 59mn 2s
Bit rate mode : Constant
Bit rate : 64.0 Kbps
Channel(s) : 2 channels
Sampling rate : 44.1 KHz
Compression mode : Lossy
Stream size : 27.0 MiB (9%)

Скриншоты



Серия 06 :: Знаменитость в бюджетном авто - Луис Уолш, музыкальный менеджер и телеведущий

Media Info

General
Complete name : Top.Gear.S17E06.rus.Jetvis.Studio.flv
Format : Flash Video
File size : 290 MiB
Duration : 1h 0mn
Overall bit rate : 672 Kbps
Tagged date : UTC 2011-08-04 19:43:06
Tagging application : GOM ENCODER (GFlv4Writer 1.0)
Video
Format : Sorenson Spark
Codec ID : 2
Duration : 1h 0mn
Bit rate : 600 Kbps
Width : 624 pixels
Height : 352 pixels
Display aspect ratio : 16:9
Frame rate mode : Constant
Frame rate : 25.000 fps
Bit depth : 8 bits
Bits/(Pixel*Frame) : 0.109
Stream size : 259 MiB (89%)
Audio
Format : MPEG Audio
Format version : Version 1
Format profile : Layer 3
Mode : Joint stereo
Mode extension : MS Stereo
Codec ID : 2
Codec ID/Hint : MP3
Duration : 1h 0mn
Bit rate mode : Constant
Bit rate : 64.0 Kbps
Channel(s) : 2 channels
Sampling rate : 44.1 KHz
Compression mode : Lossy
Delay relative to video : -40ms
Stream size : 27.6 MiB (10%)

Скриншоты





Последний раз редактировалось: Mixer City (2011-08-05 10:43), всего редактировалось 9 раз(а)

Создавать темы 24-Июл-2011 20:04

[Профиль]  [ЛС] 

oneill22

Стаж: 6 лет 5 месяцев

Сообщений: 12

а скольок всего серий в сезоне ????
когда выложишь полный сезон ???
хочеться сразу все серии посматреть !!!!!!!!

Создавать темы 24-Июл-2011 21:02

[Профиль]  [ЛС] 

Mixer City ®

Стаж: 6 лет 7 месяцев

Сообщений: 754

Симпатии: 63

oneill22
Обычно 6-7 серий
Когда его покажут по BBC
Мне тоже, но что поделать
17 сезон в данное время через определённый период показывают по 1 серии по BBC в Великобритании, как появятся остальные с переводом, так и добавлю.

Создавать темы 24-Июл-2011 21:29

[Профиль]  [ЛС] 

oneill22

Стаж: 6 лет 5 месяцев

Сообщений: 12

6 серий будет в сезон !!!!
жалко что так мало ak
и скорости если можно !!!!! ay

Создавать темы 25-Июл-2011 23:37

[Профиль]  [ЛС] 

Mixer City ®

Стаж: 6 лет 7 месяцев

Сообщений: 754

Симпатии: 63

завтра дораздам, а сейчас спать

Создавать темы 26-Июл-2011 02:14

[Профиль]  [ЛС] 

x6

Стаж: 6 лет 6 месяцев

Сообщений: 171

Симпатии: 3

спасибо ! а будет 4 серия в разрешении 720*400?

_________________
Подпись отключена за нарушение правил форума

Создавать темы 01-Авг-2011 11:45

[Профиль]  [ЛС] 

Mixer City ®

Стаж: 6 лет 7 месяцев

Сообщений: 754

Симпатии: 63

спасибо ! а будет 4 серия в разрешении 720*400?
нет тока эта, ну там разница небольшая
Добавлено спустя 14 часов 7 минут 15 секунд:
Добавил 5-ю серию. Удалите торрент файл и скачайте его заново.
Добавлено спустя 31 секунда:
Раздавать буду завтра.
Добавлено спустя 7 часов 56 минут 37 секунд:
Всё раздаю


Последний раз редактировалось: Mixer City (2011-08-02 10:42), всего редактировалось 3 раз(а)

Создавать темы 02-Авг-2011 10:42

[Профиль]  [ЛС] 

oneill22

Стаж: 6 лет 5 месяцев

Сообщений: 12

Mixer City спс !!! ay

Создавать темы 02-Авг-2011 12:30

[Профиль]  [ЛС] 

Mixer City ®

Стаж: 6 лет 7 месяцев

Сообщений: 754

Симпатии: 63

качайте с новой 5-й серией

Создавать темы 02-Авг-2011 13:22

[Профиль]  [ЛС] 

Mixer City ®

Стаж: 6 лет 7 месяцев

Сообщений: 754

Симпатии: 63

Всё добавил последнюю - 6-ю серию. Конец сезона. Перекачайте торрент файл.

Создавать темы 05-Авг-2011 10:46

[Профиль]  [ЛС] 

AssassiN2

Стаж: 7 лет 5 месяцев

Сообщений: 61

Симпатии: 4

скорости добавьте если можно =)

Создавать темы 30-Сен-2011 00:55

[Профиль]  [ЛС] 

Mixer City ®

Стаж: 6 лет 7 месяцев

Сообщений: 754

Симпатии: 63

скорости добавьте если можно =)
Ща помогу.
Добавлено спустя 1 час 17 минут 27 секунд:
AssassiN2
Завтра дораздам остальное.


Последний раз редактировалось: Mixer City (2011-09-30 02:23), всего редактировалось 1 раз

Создавать темы 30-Сен-2011 02:23

[Профиль]  [ЛС] 

Jamik656

Стаж: 5 лет 7 месяцев

Сообщений: 32

скорости плизз

Создавать темы 06-Янв-2012 12:45

[Профиль]  [ЛС] 

Jamik656

Стаж: 5 лет 7 месяцев

Сообщений: 32

Качаю :)

Создавать темы 06-Янв-2012 18:50

[Профиль]  [ЛС] 

Jamik656

Стаж: 5 лет 7 месяцев

Сообщений: 32

Скоростииииииииииииииииииииииии

Создавать темы 07-Янв-2012 18:39

[Профиль]  [ЛС] 
Показать сообщения:    
Ответить на тему

Текущее время: 17-Авг 22:40

Часовой пояс: UTC + 5



Вы не можете начинать темы
Вы не можете отвечать на сообщения
Вы не можете редактировать свои сообщения
Вы не можете удалять свои сообщения
Вы не можете голосовать в опросах
Вы не можете прикреплять файлы к сообщениям
Вы не можете скачивать файлы