Призраки дома Винчестеров / Haunting of Winchester House (Марк Аткинс / Mark Atkins) [2009 г., ужасы]

Ответить на тему
 

anviko ®

Стаж: 6 лет 9 месяцев

Сообщений: 84

Симпатии: 3

Призраки дома Винчестеров / Haunting of Winchester House Год выпуска: 2009
Страна: США
Жанр: ужасы
Продолжительность: 01:25:32
Перевод: Профессиональный (многоголосый, закадровый)
Режиссер: Марк Аткинс / Mark Atkins
В ролях: Лира Келлерман, Майкл Холмс, Kimberly Ables Jindra, Пэтти Робертс, Дженнифер Смарт, Rob Ullett, Дэвид Макинтайр, Savannah Schoenecker, Сари Шиэн, Риа Мейерс
Описание: Оказавшись в стесненных обстоятельствах, семья Гринеров соглашается присматривать за старинным особняком, несмотря на дурную славу зловещего жилища. Въехав в огромный дом, они довольно быстро сталкиваются с истинными хозяевами дома! Побеспокоенные вторжением призраки обрушивают весь свой гнев на непрошенных жильцов. Пытаясь разгадать тайну старого особняка, Гринеры обращаются за помощью к исследователю паранормальных явлений…
Доп. информация: Формат 3D: Anaglyph / Анаглиф red'cyan
Формат: MKV
Видео кодек: Другой MPEG4
Аудио кодек: AC3
Видео: MPEG4 Video (H264) 1280x720 23.98fps 4231 kbps
Аудио1:Russian Dolby AC3 48000Hz 2ch 192 Kbps
Аудио2: English Dolby AC3 48000Hz 2ch 192 Kbps

Медио

Format : Matroska
File size : 2.76 GiB
Duration : 1h 25mn
Overall bit rate : 4 616 Kbps
Encoded date : UTC 2011-05-07 13:59:51
Writing application : mkvmerge v2.9.7 ('Tenderness') built on Jul 1 2009 18:43:35
Writing library : libebml v0.7.7 + libmatroska v0.8.1
Video
ID : 1
Format : AVC
Format/Info : Advanced Video Codec
Format profile : [email protected]
Format settings, CABAC : Yes
Format settings, ReFrames : 5 frames
Muxing mode : Container [email protected]
Codec ID : V_MPEG4/ISO/AVC
Duration : 1h 25mn
Bit rate : 4 233 Kbps
Width : 1 280 pixels
Height : 720 pixels
Display aspect ratio : 16:9
Frame rate : 23.976 fps
Color space : YUV
Chroma subsampling : 4:2:0
Bit depth : 8 bits
Scan type : Progressive
Bits/(Pixel*Frame) : 0.192
Stream size : 2.47 GiB (90%)
Writing library : x264 core 98 r1649 c54c47d
Encoding settings : cabac=1 / ref=5 / deblock=1:0:0 / analyse=0x3:0x133 / me=umh / subme=7 / psy=1 / psy_rd=1.00:0.00 / mixed_ref=1 / me_range=16 / chroma_me=1 / trellis=1 / 8x8dct=1 / cqm=0 / deadzone=21,11 / fast_pskip=0 / chroma_qp_offset=-2 / threads=12 / sliced_threads=0 / nr=0 / decimate=1 / interlaced=0 / constrained_intra=0 / bframes=3 / b_pyramid=2 / b_adapt=1 / b_bias=0 / direct=1 / weightb=1 / weightp=2 / keyint=250 / keyint_min=25 / scenecut=40 / intra_refresh=0 / rc_lookahead=40 / rc=2pass / mbtree=1 / bitrate=4233 / ratetol=1.0 / qcomp=0.60 / qpmin=10 / qpmax=51 / qpstep=4 / cplxblur=20.0 / qblur=0.5 / ip_ratio=1.40 / aq=1:1.00
Language : English
Audio #1
ID : 2
Format : AC-3
Format/Info : Audio Coding 3
Mode extension : CM (complete main)
Codec ID : A_AC3
Duration : 1h 25mn
Bit rate mode : Constant
Bit rate : 192 Kbps
Channel(s) : 2 channels
Channel positions : Front: L R
Sampling rate : 48.0 KHz
Bit depth : 16 bits
Stream size : 117 MiB (4%)
Language : Russian
Audio #2
ID : 3
Format : AC-3
Format/Info : Audio Coding 3
Mode extension : CM (complete main)
Codec ID : A_AC3
Duration : 1h 25mn
Bit rate mode : Constant
Bit rate : 192 Kbps
Channel(s) : 2 channels
Channel positions : Front: L R
Sampling rate : 48.0 KHz
Bit depth : 16 bits
Stream size : 117 MiB (4%)
Language : English

Скриншоты



 

Создавать темы 28-Июл-2011 11:21

[Профиль]  [ЛС] 

lazzzat

Стаж: 6 лет 3 месяца

Сообщений: 1

ag ag ag

Создавать темы 01-Авг-2011 16:18

[Профиль]  [ЛС] 

sapfir

Стаж: 6 лет 6 месяцев

Сообщений: 49

А раздача будет? А то что-то 5й день нет скорости

Создавать темы 02-Авг-2011 19:44

[Профиль]  [ЛС] 

anviko ®

Стаж: 6 лет 9 месяцев

Сообщений: 84

Симпатии: 3

А раздача будет? А то что-то 5й день нет скорости
раздаю по возможности и скорости. терпение... только терпение

Создавать темы 03-Авг-2011 08:00

[Профиль]  [ЛС] 

sapfir

Стаж: 6 лет 6 месяцев

Сообщений: 49

ТВ-3 самый мистический, теперь в 3D ap

Создавать темы 03-Авг-2011 23:27

[Профиль]  [ЛС] 

Уша

Стаж: 7 лет 2 месяца

Сообщений: 92

Симпатии: 1

Кто нидь знает как называется програмка с помощью которой можно фильмы переводить в 3д??? помогите пожалуйста
MakeMe3d.v1.0.10.922.Bilingual.Incl.Keygen-MESMERiZE
iZ3D Driverвот лови

Создавать темы 08-Авг-2011 17:36

[Профиль]  [ЛС] 

Sardor75

Стаж: 6 лет 11 месяцев

Сообщений: 10

Модераторам-можно в правилах добавит, чтоб указывали кинокомпанию, который сняла фильм во всех раздачах. Никогда не скачал бы этот фильм, если узнал что от "АСИЛИУМ"а.

Создавать темы 14-Фев-2012 19:54

[Профиль]  [ЛС] 

anviko ®

Стаж: 6 лет 9 месяцев

Сообщений: 84

Симпатии: 3

Модераторам-можно в правилах добавит, чтоб указывали кинокомпанию, который сняла фильм во всех раздачах. Никогда не скачал бы этот фильм, если узнал что от "АСИЛИУМ"а.
если такие правила устанавливать, то мне , к примеру, от ворнер бразерс фильмы не прикалывают.
А так, Братан, у всех вкусы разные- не тяни одеяло на себя.

Создавать темы 19-Фев-2012 20:25

[Профиль]  [ЛС] 
Показать сообщения:    
Ответить на тему

Текущее время: 23-Окт 23:58

Часовой пояс: UTC + 5



Вы не можете начинать темы
Вы не можете отвечать на сообщения
Вы не можете редактировать свои сообщения
Вы не можете удалять свои сообщения
Вы не можете голосовать в опросах
Вы не можете прикреплять файлы к сообщениям
Вы не можете скачивать файлы