Варенье из сакуры [2011 г., DVDRip]

Ответить на тему
 

javlon6 ®

Стаж: 6 лет 6 месяцев

Сообщений: 12

--->Варенье из сакуры<--- - -Год выпуска: 2011-Страна: Россия-Жанр: комедия-Продолжительность: 01:30:45-Перевод: Не требуется-Режиссер: Юлия Ауг-В ролях: Михаил Горевой, Мария Аронова, Екатерина Маликова, Алексей Панин, Ренат Давлетьяров, Артем Ткаченко, Петр Красилов, Евгения Лоза, Равшана Куркова, Кирилл Плетнёв, Игорь Яцко-Описание: Молодой бизнесмен Воронцов дошел, что называется, до ручки. Он-то строит свое дело грамотно и по всем зарубежным стандартам, а вот сотрудники не поддаются никаким мотивациям и методикам. Воронцов в таком отчаянии, что решается на крайнюю меру: он готов ликвидировать свой офис вместе со штатом, причем в самом прямом смысле слова. Но тут на помощь приходит его старый приятель Щеглов. Есть идея: пригласить опытного кризисного директора, да не простого, а настоящего японца Томокадзу-сан. Он, как «мистер Вульф», решает все проблемы быстро и радикально. Сказано — сделано: Томокадзу-сан водворяется в офисе истерзанного Воронцова, и… начинается! Начинается настоящее противостояние японского духа и русской души, философии самураев и идеологии родной печки, которая сама везде ездит, главное с нее не упасть. Получится ли у доблестного японца превратить наших «неторопливых философов» в «белых шелковых воротничков»?-Качество: DVDRip-Формат: AVI-Видео кодек: XviD-Аудио кодек: AC3-Видео: 720x304 (2.37:1), 25 fps, XviD build 47 ~1697 kbps avg, 0.31 bit/pixel-Аудио: 48 kHz, AC3 Dolby Digital, 3/2 (L,C,R,l,r) + LFE ch, ~448 kbps-

MediaInfo

General
Complete name : E:\cinema new\Varene.iz.sakury.2011.O.DVDRip.ELEKTRI4KA.avi
Format : AVI
Format/Info : Audio Video Interleave
File size : 1.37 GiB
Duration : 1h 30mn
Overall bit rate : 2 155 Kbps
Movie name : Varene.iz.sakury.2011.O.DVDRip.ELEKTRI4KA
Director : ELEKTRO-Am
Writing application : VirtualDubMod 1.5.10.2 (build 2540/release)
Copyright : ELEKTRI4KA
Video
ID : 0
Format : MPEG-4 Visual
Format profile : Advanced [email protected]
Format settings, BVOP : Yes
Format settings, QPel : No
Format settings, GMC : No warppoints
Format settings, Matrix : Custom
Codec ID : XVID
Codec ID/Hint : XviD
Duration : 1h 30mn
Bit rate : 1 697 Kbps
Width : 720 pixels
Height : 304 pixels
Display aspect ratio : 2.35:1
Frame rate : 25.000 fps
Color space : YUV
Chroma subsampling : 4:2:0
Bit depth : 8 bits
Scan type : Progressive
Bits/(Pixel*Frame) : 0.310
Stream size : 1.08 GiB (79%)
Writing library : XviD 1.2.0.dev47 (UTC 2006-11-01)
Audio
ID : 1
Format : AC-3
Format/Info : Audio Coding 3
Mode extension : CM (complete main)
Codec ID : 2000
Duration : 1h 30mn
Bit rate mode : Constant
Bit rate : 448 Kbps
Channel(s) : 6 channels
Channel positions : Front: L C R, Side: L R, LFE
Sampling rate : 48.0 KHz
Bit depth : 16 bits
Stream size : 291 MiB (21%)
Alignment : Split accross interleaves
Interleave, duration : 40 ms (1.00 video frame)
Interleave, preload duration : 500 ms

Скриншоты






Последний раз редактировалось: javlon6 (2011-07-29 12:27), всего редактировалось 2 раз(а)

Создавать темы 29-Июл-2011 08:56

[Профиль]  [ЛС] 

Li Yoxa

Стаж: 6 лет 9 месяцев

Сообщений: 31

Симпатии: 1

Спасибо за релиз. Но, фильм должен быть в разделе Российских фильмов. Исправь.

Создавать темы 29-Июл-2011 10:32

[Профиль]  [ЛС] 

Топик был перенесен из форума Фильмы за 2011 в форум Фильмы за 2011

True_Lies

Создавать темы 29-Июл-2011 12:54

 

Alisher2990

Стаж: 6 лет 5 месяцев

Сообщений: 4

Спасиба за фильм но скорости нет aq

Создавать темы 29-Июл-2011 22:49

[Профиль]  [ЛС] 
Показать сообщения:    
Ответить на тему

Текущее время: 18-Окт 10:53

Часовой пояс: UTC + 5



Вы не можете начинать темы
Вы не можете отвечать на сообщения
Вы не можете редактировать свои сообщения
Вы не можете удалять свои сообщения
Вы не можете голосовать в опросах
Вы не можете прикреплять файлы к сообщениям
Вы не можете скачивать файлы