Игра / Game (Абхинай Део) [2011 г., триллер, детектив, DVDRip]

Ответить на тему
 

Mansurbek84 ®

Стаж: 6 лет 10 месяцев

Сообщений: 80

Симпатии: 8

Игра / Game
Год выпуска: 2011
Страна: Индия
Жанр: триллер, детектив
Продолжительность: 02:14:55
Перевод: Любительский (двухголосый)
Режиссер: Абхинай Део
В ролях: Абхишек Баччан, Кангана Ранаут, Сара-Джейн Диас, Джимми Шергилл, Шахана Госвами, Боман Ирани, Анупам Кхер, Гаухар Кхан--Описание: Рецепт остросюжетного детектива по-болливудски. Берем наркоторговца, немного смахивающего на героя Аль Пачино из фильма «Лицо со шрамом», политика, журналистку и кинозвезду. Помещаем всю эту компанию на остров и, нагнетая атмосферу, начинаем подозревать в хладнокровном убийстве. Каждый является подозреваемым, и у каждого из них есть мотив. Добавляем музыку, танцы, любовную историю и сногсшибательную красотку, роль которой исполняет Мисс Индия. Ничто не закончится, пока не закончится игра.--Доп. информация: Субтитры: Русские (вшитые, на песни)
Качество: DVDRip
Формат: AVI
Видео кодек: XviD
Аудио кодек: AC3
Видео: 720x304 (2.35:1), 23.976 fps, XviD build 57 ~1345 kbps avg, 0.24 bit/pixel
Аудио: 48 kHz, AC3 Dolby Digital, 2 (L,R) ch, ~192.00 kbps avg

Мед.инфо

General
Complete name :
Format : AVI
Format/Info : Audio Video Interleave
File size : 1.46 GiB
Duration : 2h 14mn
Overall bit rate : 1 547 Kbps
Movie name : Igra.2011.DVDRip.XviD.BwTorrents
Director : -= BWTORRENTS.RU =-
Genre : -= BWTORRENTS.RU =-
Writing application : VirtualDubMod 1.5.10.3 | www.virtualdub-fr.org || (build 2550/release)
Original source form/Name : -= BWTORRENTS.RU =-
Copyright : -= BWTORRENTS.RU =-
Comment : -= BWTORRENTS.RU =-
Video #0
ID : 0
Format : MPEG-4 Visual
Format profile : Advanced [email protected]
Format settings, BVOP : 2
Format settings, QPel : No
Format settings, GMC : No warppoints
Format settings, Matrix : Default (MPEG)
Codec ID : XVID
Codec ID/Hint : XviD
Duration : 2h 14mn
Bit rate : 1 346 Kbps
Width : 720 pixels
Height : 304 pixels
Display aspect ratio : 2.35:1
Frame rate : 23.976 fps
Color space : YUV
Chroma subsampling : 4:2:0
Bit depth : 8 bits
Scan type : Progressive
Compression mode : Lossy
Bits/(Pixel*Frame) : 0.256
Stream size : 1.27 GiB (87%)
Writing library : XviD 1.2.1 (UTC 2008-12-04)
Audio #1
ID : 1
Format : AC-3
Format/Info : Audio Coding 3
Mode extension : CM (complete main)
Codec ID : 2000
Duration : 2h 14mn
Bit rate mode : Constant
Bit rate : 192 Kbps
Channel(s) : 2 channels
Channel positions : Front: L R
Sampling rate : 48.0 KHz
Bit depth : 16 bits
Compression mode : Lossy
Stream size : 185 MiB (12%)
Alignment : Split accross interleaves
Interleave, duration : 42 ms (1.00 video frame)
Interleave, preload duration : 500 ms

Скриншоты



Создавать темы 29-Июл-2011 09:11

[Профиль]  [ЛС] 

Mansurbek84 ®

Стаж: 6 лет 10 месяцев

Сообщений: 80

Симпатии: 8

Фильм хороший pc

Создавать темы 29-Июл-2011 09:40

[Профиль]  [ЛС] 

Java

Стаж: 6 лет 5 месяцев

Сообщений: 27

раздача будеть ? ab

Создавать темы 29-Июл-2011 09:41

[Профиль]  [ЛС] 

Топик был перенесен из форума Фильмы за 2011 в форум Индийское кино

True_Lies

Создавать темы 29-Июл-2011 12:56

 

Руслан

Стаж: 7 лет 9 месяцев

Сообщений: 166

Симпатии: 2

..............Рецепт остросюжетного детектива по-болливудски. Берем наркоторговца, немного смахивающего на героя Аль Пачино из фильма «Лицо со шрамом», политика, журналистку и кинозвезду. Помещаем всю эту компанию на остров и, нагнетая атмосферу, начинаем подозревать в хладнокровном убийстве. Каждый является подозреваемым, и у каждого из них есть мотив. Добавляем музыку, танцы, любовную историю и сногсшибательную красотку, роль которой исполняет Мисс Индия.............
...........и получается индийский бред, который кроме них самих и средней Азии больше никто не смотрит..... at

Создавать темы 29-Июл-2011 13:09

[Профиль]  [ЛС] 

Mansurbek84 ®

Стаж: 6 лет 10 месяцев

Сообщений: 80

Симпатии: 8

Руслан а ты вообще смотрел этот фильм??? Если нет то не надо выражать свое мнение тут. Создай тему в беседке!

Создавать темы 29-Июл-2011 22:39

[Профиль]  [ЛС] 

Топик был перенесен из форума Индийское кино в форум Фильмы за 2011

Mansurbek84

Создавать темы 29-Июл-2011 22:52

 

Ilhom_one

Стаж: 7 лет

Сообщений: 29

Спасибо!!!

Создавать темы 29-Июл-2011 23:21

[Профиль]  [ЛС] 

Mansurbek84 ®

Стаж: 6 лет 10 месяцев

Сообщений: 80

Симпатии: 8

Evil фильм 2011 года и находится в форуме фильмы за 2011! Че не так? Тут что только Американские фильмы можно выкладывать чтоли? Все правильно и хватит указывать! Для этого тут есть модеры и админы если я ошибся.

Создавать темы 30-Июл-2011 01:33

[Профиль]  [ЛС] 

WeeZy

Стаж: 7 лет 10 месяцев

Сообщений: 67

модеры уже перенесли один раз!!! зачем обратно перетащил?))

Создавать темы 30-Июл-2011 08:17

[Профиль]  [ЛС] 

Топик был перенесен из форума Фильмы за 2011 в форум Индийское кино

True_Lies

Создавать темы 30-Июл-2011 14:27

 

True_Lies

Стаж: 6 лет 9 месяцев

Сообщений: 13

Mansurbek84
Именно для таких индийских фильмов с характерными для них танцами и т.д. создали раздел Индийское Кино!
в следующий раз будет горчичник .
2.12. Публично предъявлять претензии и обсуждать действия Модератора или Администратора. Участник форума, несогласный с действиями Модератора, может высказать своё несогласие Модератору по почте или в личном сообщении. Если от Модератора нет ответа или ответ, по мнению участника, необоснованный, последний вправе переписку с Модератором отправить Администратору. Конечное решение принимает Администратор. Это решение является окончательным и необсуждаемым.


Последний раз редактировалось: True_Lies (2011-07-30 14:30), всего редактировалось 1 раз

Создавать темы 30-Июл-2011 14:30

[Профиль]  [ЛС] 
Показать сообщения:    
Ответить на тему

Текущее время: 22-Сен 11:17

Часовой пояс: UTC + 5



Вы не можете начинать темы
Вы не можете отвечать на сообщения
Вы не можете редактировать свои сообщения
Вы не можете удалять свои сообщения
Вы не можете голосовать в опросах
Вы не можете прикреплять файлы к сообщениям
Вы не можете скачивать файлы