Очень плохая училка / Bad Teacher (Джейк Кэздан / Jake Kasdan) [2011 г., комедия, DVDRip][лицензия]

Страницы :  1, 2, 3  След.

Ответить на тему
 

Mansurbek84 ®

Стаж: 6 лет 11 месяцев

Сообщений: 80

Симпатии: 8

Очень плохая училка / Bad Teacher
Год выпуска: 2011
Страна: США
Жанр: Комедия
Продолжительность: 01:28:12
Перевод: Профессиональный (полное дублирование)
Режиссер: Джейк Кэздан / Jake Kasdan--В ролях: Кэмерон Диаз / Cameron Diaz, Джастин Тимберлэйк / Justin Timberlake, Джейсон Сигел / Jason Segel, Люси Панч / Lucy Punch, Филлис Смит / Phyllis Smith, Джон Майкл Хиггинс / John Michael Higgins, Дэйв Аллен / Dave Allen, Джиллиан Арменанте / Jillian Armenante, Мэттью Дж. Эванс / Matthew J. Evans, Кейтлин Девер / Kaitlyn Dever--Описание: Учительница средних классов живет гламурной жизнью светской львицы, ходит на работу как на вечеринку и мечтает об увеличении объема собственного бюста. Однако после внезапного разрыва с богатым бойфрендом ее образ жизни резко меняется, хотя сама она это осознает не сразу. Но когда в их школу приходит новый преподаватель, она совершенно теряет голову и начинает охоту за деньгами.--Качество: DVDRip
Формат: MKV
Видео кодек: AVC
Аудио кодек: AC3
Видео: 720 x 548 @ 1024 x 548 (1.85:1); 25.000 fps; 1978 kbps
Аудио: AC3 Dolby Digital; 48 KHz; 384 kbps; 3/2 (L,C,R,l,r) + LFE ch

Мед.инфо

General
Unique ID : 249686387302494475971335575253149706508 (0xBBD7D9582415E458A3ACAC5B4892690C)
Complete name :
Format : Matroska
File size : 1.46 GiB
Duration : 1h 28mn
Overall bit rate : 2 364 Kbps
Movie name : Ochen Plohaya Uchilka / 2011 / Release by Vaippp
Encoded date : UTC 2011-08-03 17:25:08
Writing application : mkvmerge v4.9.1 ('Ich will') сборка от Jul 11 2011 23:53:15
Writing library : libebml v1.2.1 + libmatroska v1.1.1
Video #1
ID : 1
Format : AVC
Format/Info : Advanced Video Codec
Format profile : [email protected]
Format settings, CABAC : Yes
Format settings, ReFrames : 7 frames
Codec ID : V_MPEG4/ISO/AVC
Duration : 1h 28mn
Bit rate : 1 978 Kbps
Width : 720 pixels
Height : 548 pixels
Display aspect ratio : 1.869
Frame rate : 25.000 fps
Color space : YUV
Chroma subsampling : 4:2:0
Bit depth : 8 bits
Scan type : Progressive
Bits/(Pixel*Frame) : 0.201
Stream size : 1.19 GiB (82%)
Title : DVDRip 03/08/2011
Writing library : x264 core 116 r2044 392e762
Encoding settings : cabac=1 / ref=7 / deblock=1:-2:-2 / analyse=0x3:0x113 / me=umh / subme=9 / psy=1 / psy_rd=1.00:0.05 / mixed_ref=1 / me_range=32 / chroma_me=1 / trellis=1 / 8x8dct=1 / cqm=0 / deadzone=21,11 / fast_pskip=0 / chroma_qp_offset=-3 / threads=12 / sliced_threads=0 / nr=0 / decimate=1 / interlaced=0 / bluray_compat=0 / constrained_intra=0 / bframes=10 / b_pyramid=2 / b_adapt=2 / b_bias=0 / direct=3 / weightb=1 / open_gop=0 / weightp=2 / keyint=250 / keyint_min=25 / scenecut=40 / intra_refresh=0 / rc_lookahead=40 / rc=2pass / mbtree=1 / bitrate=1978 / ratetol=1.0 / qcomp=0.60 / qpmin=1 / qpmax=63 / qpstep=4 / cplxblur=20.0 / qblur=0.5 / vbv_maxrate=50000 / vbv_bufsize=62500 / nal_hrd=none / ip_ratio=1.40 / aq=1:0.90 / zones=126983,132309,q=37
Language : English
Audio #2
ID : 2
Format : AC-3
Format/Info : Audio Coding 3
Mode extension : CM (complete main)
Codec ID : A_AC3
Duration : 1h 28mn
Bit rate mode : Constant
Bit rate : 384 Kbps
Channel(s) : 6 channels
Channel positions : Front: L C R, Side: L R, LFE
Sampling rate : 48.0 KHz
Bit depth : 16 bits
Compression mode : Lossy
Stream size : 242 MiB (16%)
Title : DUB
Language : Russian
Text #3
ID : 3
Format : UTF-8
Codec ID : S_TEXT/UTF8
Codec ID/Info : UTF-8 Plain Text
Title : Forced
Language : Russian

Скриншоты






Последний раз редактировалось: Mansurbek84 (2011-09-12 10:19), всего редактировалось 3 раз(а)

Создавать темы 04-Авг-2011 07:15

[Профиль]  [ЛС] 

Bek_uz

Стаж: 6 лет 5 месяцев

Сообщений: 60

Симпатии: 1

Спасибо огромное

Создавать темы 04-Авг-2011 07:56

[Профиль]  [ЛС] 

zvery77

Стаж: 6 лет 10 месяцев

Сообщений: 26

Даа))) Спасибо!! Медо.инфо прям как биография))) ag

Создавать темы 04-Авг-2011 08:35

[Профиль]  [ЛС] 

Руслан

Стаж: 7 лет 10 месяцев

Сообщений: 166

Симпатии: 2

Mansurbek84
молодца!!! пасибки! нормальный фильм в качестве - так держать!!!

Создавать темы 04-Авг-2011 08:53

[Профиль]  [ЛС] 

nikita

Стаж: 7 лет

Сообщений: 82

Симпатии: 4

огромное спасибо

Создавать темы 04-Авг-2011 08:56

[Профиль]  [ЛС] 

Mansurbek84 ®

Стаж: 6 лет 11 месяцев

Сообщений: 80

Симпатии: 8

Всем нз ab Приятного вам просмотра pc

Создавать темы 04-Авг-2011 09:01

[Профиль]  [ЛС] 

dimabek

Стаж: 6 лет 9 месяцев

Сообщений: 87

Симпатии: 13

проверяйте скрины, что то они втянутые ag

Создавать темы 04-Авг-2011 09:24

[Профиль]  [ЛС] 

Mansurbek84 ®

Стаж: 6 лет 11 месяцев

Сообщений: 80

Симпатии: 8

dimabek все в порядке. Не знаю как это вышло но видео в норме.

Создавать темы 04-Авг-2011 09:33

[Профиль]  [ЛС] 

rsoib

Стаж: 7 лет 1 месяц

Сообщений: 33

спс

Создавать темы 04-Авг-2011 09:44

[Профиль]  [ЛС] 

dragunov

Стаж: 6 лет 9 месяцев

Сообщений: 71

Симпатии: 6

Суперски фильм начинаю качать и Спасибо Автору !!!!

Создавать темы 04-Авг-2011 10:00

[Профиль]  [ЛС] 

shohruh_0777

Стаж: 6 лет 10 месяцев

Сообщений: 41

проверяйте скрины, что то они втянутые ag
хммм, да - Скриншоты точно вытянутые.....

Создавать темы 04-Авг-2011 12:11

[Профиль]  [ЛС] 

Adham

Стаж: 7 лет

Сообщений: 72

Симпатии: 11

Спасибо! Молодчина! Продолжай в том же духе! az

Создавать темы 04-Авг-2011 12:13

[Профиль]  [ЛС] 

shahobak

Стаж: 7 лет 5 месяцев

Сообщений: 10

Симпатии: 1

СПАСИБО!!!

Создавать темы 04-Авг-2011 16:58

[Профиль]  [ЛС] 

Balakay

Стаж: 7 лет 2 месяца

Сообщений: 5

да ну фильм не очень

Создавать темы 04-Авг-2011 18:22

[Профиль]  [ЛС] 

donish89

Стаж: 7 лет 6 месяцев

Сообщений: 13

Симпатии: 1

af

Создавать темы 05-Авг-2011 01:43

[Профиль]  [ЛС] 
Показать сообщения:    
Ответить на тему

Текущее время: 22-Окт 13:24

Часовой пояс: UTC + 5



Вы не можете начинать темы
Вы не можете отвечать на сообщения
Вы не можете редактировать свои сообщения
Вы не можете удалять свои сообщения
Вы не можете голосовать в опросах
Вы не можете прикреплять файлы к сообщениям
Вы не можете скачивать файлы