Вверх / Up (Пит Доктер / Pete Docter, Боб Питерсон / Bob Peterson) [русский видеоряд] [2009 г., приключения, семейный, BDRip] [720p]

Ответить на тему
 

Sheri81 ®

Стаж: 6 лет 7 месяцев

Сообщений: 3

Симпатии: 2

Вверх / Up
Год выпуска: 2009
Страна: США
Жанр: комедия, приключения, семейный, мультфильм
Продолжительность: 01:36:00
Перевод: Профессиональный (полное дублирование)
Cубтитры: русские,английские
Режиссер: Пит Доктер / Pete Docter, Боб Питерсон / Bob Peterson
Роли озвучивали: Эдвард Эснер, Кристофер Пламмер, Джордан Нагаи, Боб Питерсон, Делрой Линдо, Джером Рэнфт, Джон Ратценбергер, Дэвид Кэй, Эли Доктер, Джереми Лири, ...
Описание: В детстве Карл Фредриксен мечтал стать путешественником - исследовать дальние края, а больше всего он хотел очутиться на Райских водопадах и, может быть, если повезет, даже там поселиться. Его мечты полностью разделяла Элли, на которой Карл в конце концов и женился. Однако жизнь захватила их в свой водоворот, и о детской мечте Карл вспоминает лишь в старости, когда его Элли умирает. В память о своей второй половине он обвязывает дом воздушными шариками и вместе с ним взлетает - Карл направляется в Южную Америку, к Райским водопадам. Только уже в воздухе выясняется, что на крылечке его дома притаился малыш-бойскаут.
Качество: BDRip 720p
Формат: MKV
Аудио кодек: AC3
Видео: 1280х720 (1.85:1), 23,976 fps, 4833 kbps, 0.212 bit/pixel
Аудио 1: Русский (дубляж); AC3; 640 Kbps; 48KHz; 6 ch
Аудио 2: Английский (оригинал); DTS; 1536 Kbps; 48KHz; 6 ch
Субтитры 1:Русские
Субтитры 2:Английские

MediaInfo

General
General
Complete name : F:\temp\New Folder\up\Up.2009.720p.BluRay.AC3.DTS.x264.mkv
Format : Matroska
File size : 4.72 GiB
Duration : 1h 36mn
Overall bit rate : 6 979 Kbps
Movie name : Up.2009.720p.BluRay.AC3.DTS.x264
Encoded date : UTC 2010-02-27 15:07:41
Writing application : mkvmerge v3.0.0 ('Hang up your Hang-Ups') built on Dec 12 2009 15:20:35
Writing library : libebml v0.7.9 + libmatroska v0.8.1
Cover : Yes / Yes / Yes / Yes / Yes / Yes / Yes
Video
ID : 1
Format : AVC
Format/Info : Advanced Video Codec
Format profile : [email protected]
Format settings, CABAC : Yes
Format settings, ReFrames : 9 frames
Muxing mode : Container [email protected]
Codec ID : V_MPEG4/ISO/AVC
Duration : 1h 36mn
Bit rate : 4 690 Kbps
Nominal bit rate : 4 833 Kbps
Width : 1 280 pixels
Height : 720 pixels
Display aspect ratio : 16:9
Frame rate : 23.976 fps
Resolution : 8 bits
Colorimetry : 4:2:0
Scan type : Progressive
Bits/(Pixel*Frame) : 0.212
Stream size : 3.17 GiB (67%)
Writing library : x264 core 80 r1376M 3feaec2
Encoding settings : cabac=1 / ref=9 / deblock=1:-3:-3 / analyse=0x3:0x113 / me=tesa / subme=10 / psy=1 / psy_rd=0.9:0.0 / mixed_ref=1 / me_range=32 / chroma_me=1 / trellis=2 / 8x8dct=1 / cqm=0 / deadzone=21,11 / fast_pskip=0 / chroma_qp_offset=-4 / threads=3 / sliced_threads=0 / nr=0 / decimate=1 / mbaff=0 / constrained_intra=0 / bframes=9 / b_pyramid=0 / b_adapt=2 / b_bias=0 / direct=3 / wpredb=1 / wpredp=2 / keyint=250 / keyint_min=25 / scenecut=40 / rc_lookahead=90 / rc=2pass / mbtree=1 / bitrate=4833 / ratetol=1.0 / qcomp=0.60 / qpmin=10 / qpmax=51 / qpstep=4 / cplxblur=20.0 / qblur=0.5 / ip_ratio=1.40 / aq=1:0.80
Language : Russian
Audio #1
ID : 2
Format : AC-3
Format/Info : Audio Coding 3
Codec ID : A_AC3
Duration : 1h 36mn
Bit rate mode : Constant
Bit rate : 640 Kbps
Channel(s) : 6 channels
Channel positions : Front: L C R, Surround: L R, LFE
Sampling rate : 48.0 KHz
Stream size : 443 MiB (9%)
Language : Russian
Audio #2
ID : 3
Format : DTS
Format/Info : Digital Theater Systems
Format profile : ES
Codec ID : A_DTS
Duration : 1h 36mn
Bit rate mode : Constant
Bit rate : 1 510 Kbps
Channel(s) : 6 channels
Channel positions : Front: L C R, Surround: L R, LFE
Sampling rate : 48.0 KHz
Resolution : 24 bits
Stream size : 1.02 GiB (22%)
Language : English
Text #1
ID : 4
Format : ASS
Codec ID : S_TEXT/ASS
Codec ID/Info : Advanced Sub Station Alpha
Language : Russian
Text #2
ID : 5
Format : ASS
Codec ID : S_TEXT/ASS
Codec ID/Info : Advanced Sub Station Alpha
Language : English
Menu
00:00:00.000 : en:00:00:00.000
00:02:39.409 : en:00:02:39.409
00:07:14.184 : en:00:07:14.184
00:11:37.488 : en:00:11:37.488
00:13:33.479 : en:00:13:33.479
00:15:22.088 : en:00:15:22.088
00:17:35.888 : en:00:17:35.888
00:20:25.140 : en:00:20:25.140
00:24:31.303 : en:00:24:31.303
00:26:23.790 : en:00:26:23.790
00:28:02.556 : en:00:28:02.556
00:29:40.237 : en:00:29:40.237
00:33:20.165 : en:00:33:20.165
00:34:20.391 : en:00:34:20.391
00:35:14.487 : en:00:35:14.487
00:39:49.512 : en:00:39:49.512
00:42:34.844 : en:00:42:34.844
00:44:41.178 : en:00:44:41.178
00:46:17.233 : en:00:46:17.233
00:49:19.123 : en:00:49:19.123
00:52:20.929 : en:00:52:20.929
00:55:23.987 : en:00:55:23.987
01:00:33.546 : en:01:00:33.546
01:04:19.188 : en:01:04:19.188
01:06:14.303 : en:01:06:14.303
01:08:58.009 : en:01:08:58.009
01:10:20.716 : en:01:10:20.716
01:13:35.327 : en:01:13:35.327
01:15:24.353 : en:01:15:24.353
01:17:52.751 : en:01:17:52.751
01:19:45.864 : en:01:19:45.864
01:21:53.867 : en:01:21:53.867
01:23:23.290 : en:01:23:23.290
01:26:02.657 : en:01:26:02.657
01:29:02.420 : en:01:29:02.420

Скриншоты

Создавать темы 05-Авг-2011 04:36

[Профиль]  [ЛС] 

Bek_uz

Стаж: 6 лет 4 месяца

Сообщений: 60

Симпатии: 1

супер Спасибо огромное

Создавать темы 05-Авг-2011 12:10

[Профиль]  [ЛС] 

x6

Стаж: 6 лет 7 месяцев

Сообщений: 171

Симпатии: 3

sheri81
top gear путешествия оба раздай плиз(((

_________________
Подпись отключена за нарушение правил форума

Создавать темы 13-Авг-2011 10:22

[Профиль]  [ЛС] 

RStorm

Стаж: 7 лет 7 месяцев

Сообщений: 16

На раздачу вернитесь плиз.

Создавать темы 08-Сен-2011 12:17

[Профиль]  [ЛС] 

al-murod007

Стаж: 6 лет 9 месяцев

Сообщений: 9

Симпатии: 4

На раздачу вернитесь
Добавлено спустя 2 минуты 15 секунд:
Sheri81На раздачу вернитесь плиз.


Последний раз редактировалось: al-murod007 (2011-09-08 17:24), всего редактировалось 1 раз

Создавать темы 08-Сен-2011 17:24

[Профиль]  [ЛС] 

opopo

Стаж: 7 лет 2 месяца

Сообщений: 14

дайте газу

Создавать темы 23-Дек-2011 20:46

[Профиль]  [ЛС] 

tpsman

Стаж: 5 лет 4 месяца

Сообщений: 3

Скорости ребята плз!!!

Создавать темы 19-Май-2012 23:37

[Профиль]  [ЛС] 

abdushukur

Стаж: 6 лет 5 месяцев

Сообщений: 5

Скорость добавте please!!!

Создавать темы 16-Окт-2012 23:41

[Профиль]  [ЛС] 

deROCKer

Стаж: 5 лет 10 месяцев

Сообщений: 4

Скорости дайде

Создавать темы 04-Окт-2013 11:00

[Профиль]  [ЛС] 

deROCKer

Стаж: 5 лет 10 месяцев

Сообщений: 4

Сиды! Помогите со скоростью, уже месяц качаю...

Создавать темы 02-Ноя-2013 17:42

[Профиль]  [ЛС] 
Показать сообщения:    
Ответить на тему

Текущее время: 22-Сен 09:36

Часовой пояс: UTC + 5



Вы не можете начинать темы
Вы не можете отвечать на сообщения
Вы не можете редактировать свои сообщения
Вы не можете удалять свои сообщения
Вы не можете голосовать в опросах
Вы не можете прикреплять файлы к сообщениям
Вы не можете скачивать файлы